999
DXF file: 1635_dropin_052423.dxf
999
Pro/ENGINEER 2015080 by Parametric Technology Corporation
  0
SECTION
  2
HEADER
  9
$ACADVER
  1
AC1027
  9
$DWGCODEPAGE
  3
ANSI_1252
  9
$EXTMAX
 10
44.0
 20
34.0
 30
0.0
  9
$EXTMIN
 10
0.0
 20
0.0
 30
0.0
  9
$LIMMIN
 10
0.0
 20
0.0
  9
$LIMMAX
 10
44.0
 20
34.0
  9
$VIEWCTR
 10
22.0
 20
17.0
  9
$VIEWSIZE
 40
34.0
  9
$CLAYER
  8
0
  9
$LTSCALE
 40
2.42
  9
$CELTYPE
  6
BYLAYER
  9
$DIMSCALE
 40
1.0
  9
$DIMASZ
 40
0.1875
  9
$DIMEXO
 40
0.0625
  9
$DIMDLI
 40
1.672
  9
$DIMEXE
 40
0.125
  9
$DIMCEN
 40
0.396
  9
$DIMLFAC
 40
1.0
  9
$DIMBLK
  1
_CLOSED
  9
$DIMALT
 70
0
  9
$DIMALTF
 40
25.4
  9
$DIMTXT
 40
0.15625
  9
$DIMTOL
 70
0
  9
$DIMLIM
 70
0
  9
$DIMTFAC
 40
1.0
  9
$DIMGAP
 40
0.09
  9
$DIMDSEP
 70
46
  9
$AUNITS
 70
0
  9
$PDMODE
 70
3
  9
$PDSIZE
 40
0.3125
  9
$HANDSEED
  5
3E0
  9
$TILEMODE
 70
1
  9
$MEASUREMENT
 70
0
  9
$INSUNITS
 70
1
  0
ENDSEC
  0
SECTION
  2
CLASSES
  0
CLASS
  1
ACDBDICTIONARYWDFLT
  2
AcDbDictionaryWithDefault
  3
AutoCAD 2000
 90
0
 91
1
280
0
281
0
  0
CLASS
  1
ACDBPLACEHOLDER
  2
AcDbPlaceHolder
  3
AutoCAD 2000
 90
0
 91
1
280
0
281
0
  0
CLASS
  1
LAYOUT
  2
AcDbLayout
  3
AutoCAD 2000
 90
0
 91
0
280
0
281
0
  0
ENDSEC
  0
SECTION
  2
TABLES
  0
TABLE
  2
VPORT
  5
8
100
AcDbSymbolTable
 70
2
  0
VPORT
  5
1F4
100
AcDbSymbolTableRecord
100
AcDbViewportTableRecord
  2
*ACTIVE
 70
0
 10
0.0
 20
0.0
 11
1.0
 21
1.0
 12
22.0
 22
17.0
 13
0.0
 23
0.0
 14
1.0
 24
1.0
 15
0.0
 25
0.0
 16
0.0
 26
0.0
 36
1.0
 17
0.0
 27
0.0
 37
0.0
 40
34.0
 41
1.2941176471
 42
50.0
 43
0.0
 44
0.0
 50
0.0
 51
0.0
 71
0
 72
100
 73
1
 74
1
 75
0
 76
0
 77
0
 78
0
  0
ENDTAB
  0
TABLE
  2
LTYPE
  5
5
100
AcDbSymbolTable
 70
6
  0
LTYPE
  5
14
100
AcDbSymbolTableRecord
100
AcDbLinetypeTableRecord
  2
BYBLOCK
 70
0
  3

 72
65
 73
0
 40
0.0
  0
LTYPE
  5
15
100
AcDbSymbolTableRecord
100
AcDbLinetypeTableRecord
  2
BYLAYER
 70
0
  3

 72
65
 73
0
 40
0.0
  0
LTYPE
  5
16
100
AcDbSymbolTableRecord
100
AcDbLinetypeTableRecord
  2
CONTINUOUS
 70
64
  3
Solid line
 72
65
 73
0
 40
0.0
  0
LTYPE
  5
1F5
100
AcDbSymbolTableRecord
100
AcDbLinetypeTableRecord
  2
CENTER
 70
64
  3
____ _ ____ _ ____ _ ____ _ ____ _ ____ _ ____
 72
65
 73
4
 40
0.6
 49
0.375
 74
0
 49
-0.075
 74
0
 49
0.075
 74
0
 49
-0.075
 74
0
  0
LTYPE
  5
1F6
100
AcDbSymbolTableRecord
100
AcDbLinetypeTableRecord
  2
HIDDEN
 70
64
  3
- - - - - - - - - - - - - - - - - - - -
 72
65
 73
2
 40
0.2
 49
0.1
 74
0
 49
-0.1
 74
0
  0
LTYPE
  5
1F7
100
AcDbSymbolTableRecord
100
AcDbLinetypeTableRecord
  2
PHANTOM
 70
64
  3
_____ _ _ _____ _ _ _____ _ _ _____
 72
65
 73
6
 40
0.8
 49
0.45
 74
0
 49
-0.05
 74
0
 49
0.1
 74
0
 49
-0.05
 74
0
 49
0.1
 74
0
 49
-0.05
 74
0
  0
LTYPE
  5
1F8
100
AcDbSymbolTableRecord
100
AcDbLinetypeTableRecord
  2
DOT
 70
64
  3
. . . . . . . . . . . . . . . . . . . .
 72
65
 73
2
 40
0.2
 49
0.1
 74
0
 49
-0.1
 74
0
  0
LTYPE
  5
1F9
100
AcDbSymbolTableRecord
100
AcDbLinetypeTableRecord
  2
DASHED
 70
64
  3
- - - - - - - - - - - - - - - - - - - -
 72
65
 73
2
 40
0.2
 49
0.1
 74
0
 49
-0.1
 74
0
  0
ENDTAB
  0
TABLE
  2
LAYER
  5
2
100
AcDbSymbolTable
 70
36
  0
LAYER
  5
10
100
AcDbSymbolTableRecord
100
AcDbLayerTableRecord
  2
0
 70
0
 62
7
  6
CONTINUOUS
370
-3
390
F
  0
LAYER
  5
1FA
100
AcDbSymbolTableRecord
100
AcDbLayerTableRecord
  2
DEFAULT_1
 70
0
 62
7
  6
CENTER
370
-3
390
F
  0
LAYER
  5
1FB
100
AcDbSymbolTableRecord
100
AcDbLayerTableRecord
  2
DEFAULT_2
 70
0
 62
8
  6
HIDDEN
370
-3
390
F
  0
LAYER
  5
1FC
100
AcDbSymbolTableRecord
100
AcDbLayerTableRecord
  2
DEFAULT_3
 70
0
 62
7
  6
PHANTOM
370
-3
390
F
  0
LAYER
  5
1FD
100
AcDbSymbolTableRecord
100
AcDbLayerTableRecord
  2
01_ALL_DTM_PLN
 70
0
 62
7
  6
CONTINUOUS
370
-3
390
F
  0
LAYER
  5
1FE
100
AcDbSymbolTableRecord
100
AcDbLayerTableRecord
  2
01__ASM_ALL_DTM_PLN
 70
0
 62
7
  6
CONTINUOUS
370
-3
390
F
  0
LAYER
  5
1FF
100
AcDbSymbolTableRecord
100
AcDbLayerTableRecord
  2
01__ASM_DEF_DTM_PLN
 70
0
 62
7
  6
CONTINUOUS
370
-3
390
F
  0
LAYER
  5
200
100
AcDbSymbolTableRecord
100
AcDbLayerTableRecord
  2
01___PRT_ALL_DTM_PLN
 70
0
 62
7
  6
CONTINUOUS
370
-3
390
F
  0
LAYER
  5
201
100
AcDbSymbolTableRecord
100
AcDbLayerTableRecord
  2
01___PRT_DEF_DTM_PLN
 70
0
 62
7
  6
CONTINUOUS
370
-3
390
F
  0
LAYER
  5
202
100
AcDbSymbolTableRecord
100
AcDbLayerTableRecord
  2
02_ALL_AXES
 70
0
 62
7
  6
CONTINUOUS
370
-3
390
F
  0
LAYER
  5
203
100
AcDbSymbolTableRecord
100
AcDbLayerTableRecord
  2
02__ASM_ALL_AXES
 70
0
 62
7
  6
CONTINUOUS
370
-3
390
F
  0
LAYER
  5
204
100
AcDbSymbolTableRecord
100
AcDbLayerTableRecord
  2
02___PRT_ALL_AXES
 70
0
 62
7
  6
CONTINUOUS
370
-3
390
F
  0
LAYER
  5
205
100
AcDbSymbolTableRecord
100
AcDbLayerTableRecord
  2
03_ALL_CURVES
 70
0
 62
7
  6
CONTINUOUS
370
-3
390
F
  0
LAYER
  5
206
100
AcDbSymbolTableRecord
100
AcDbLayerTableRecord
  2
03__ASM_ALL_CURVES
 70
0
 62
7
  6
CONTINUOUS
370
-3
390
F
  0
LAYER
  5
207
100
AcDbSymbolTableRecord
100
AcDbLayerTableRecord
  2
03___PRT_ALL_CURVES
 70
0
 62
7
  6
CONTINUOUS
370
-3
390
F
  0
LAYER
  5
208
100
AcDbSymbolTableRecord
100
AcDbLayerTableRecord
  2
04_ALL_DTM_PNT
 70
0
 62
7
  6
CONTINUOUS
370
-3
390
F
  0
LAYER
  5
209
100
AcDbSymbolTableRecord
100
AcDbLayerTableRecord
  2
04__ASM_ALL_DTM_PNT
 70
0
 62
7
  6
CONTINUOUS
370
-3
390
F
  0
LAYER
  5
20A
100
AcDbSymbolTableRecord
100
AcDbLayerTableRecord
  2
04___PRT_ALL_DTM_PNT
 70
0
 62
7
  6
CONTINUOUS
370
-3
390
F
  0
LAYER
  5
20B
100
AcDbSymbolTableRecord
100
AcDbLayerTableRecord
  2
05_ALL_DTM_CSYS
 70
0
 62
7
  6
CONTINUOUS
370
-3
390
F
  0
LAYER
  5
20C
100
AcDbSymbolTableRecord
100
AcDbLayerTableRecord
  2
05__ASM_ALL_DTM_CSYS
 70
0
 62
7
  6
CONTINUOUS
370
-3
390
F
  0
LAYER
  5
20D
100
AcDbSymbolTableRecord
100
AcDbLayerTableRecord
  2
05__ASM_DEF_DTM_CSYS
 70
0
 62
7
  6
CONTINUOUS
370
-3
390
F
  0
LAYER
  5
20E
100
AcDbSymbolTableRecord
100
AcDbLayerTableRecord
  2
05___PRT_ALL_DTM_CSYS
 70
0
 62
7
  6
CONTINUOUS
370
-3
390
F
  0
LAYER
  5
20F
100
AcDbSymbolTableRecord
100
AcDbLayerTableRecord
  2
05___PRT_DEF_DTM_CSYS
 70
0
 62
7
  6
CONTINUOUS
370
-3
390
F
  0
LAYER
  5
210
100
AcDbSymbolTableRecord
100
AcDbLayerTableRecord
  2
06_ALL_SURFS
 70
0
 62
7
  6
CONTINUOUS
370
-3
390
F
  0
LAYER
  5
211
100
AcDbSymbolTableRecord
100
AcDbLayerTableRecord
  2
06__ASM_ALL_SURFS
 70
0
 62
7
  6
CONTINUOUS
370
-3
390
F
  0
LAYER
  5
212
100
AcDbSymbolTableRecord
100
AcDbLayerTableRecord
  2
06___PRT_ALL_SURFS
 70
0
 62
7
  6
CONTINUOUS
370
-3
390
F
  0
LAYER
  5
213
100
AcDbSymbolTableRecord
100
AcDbLayerTableRecord
  2
07__ASM_ALL_SKELETONS
 70
0
 62
7
  6
CONTINUOUS
370
-3
390
F
  0
LAYER
  5
214
100
AcDbSymbolTableRecord
100
AcDbLayerTableRecord
  2
CLOSED_SHELL
 70
0
 62
7
  6
CONTINUOUS
370
-3
390
F
  0
LAYER
  5
215
100
AcDbSymbolTableRecord
100
AcDbLayerTableRecord
  2
WHITE
 70
0
 62
7
  6
CONTINUOUS
370
-3
390
F
  0
ENDTAB
  0
TABLE
  2
STYLE
  5
3
100
AcDbSymbolTable
 70
1
  0
STYLE
  5
11
100
AcDbSymbolTableRecord
100
AcDbTextStyleTableRecord
  2
STANDARD
 70
0
 40
0.0
 41
0.8
 50
0.0
 71
0
 42
0.2
  3
txt
  4

  0
STYLE
  5
216
100
AcDbSymbolTableRecord
100
AcDbTextStyleTableRecord
  2
TEXTSTYLE_1
 70
0
 40
0.0
 41
0.8
 50
0.0
 71
0
 42
0.2
  3
gdt
  4

  0
STYLE
  5
217
100
AcDbSymbolTableRecord
100
AcDbTextStyleTableRecord
  2
TEXTSTYLE_2
 70
0
 40
0.0
 41
1.0
 50
0.0
 71
0
 42
0.2
  3
triumb.ttf
  4

  0
STYLE
  5
218
100
AcDbSymbolTableRecord
100
AcDbTextStyleTableRecord
  2
TEXTSTYLE_3
 70
0
 40
0.0
 41
1.0
 50
0.0
 71
0
 42
0.2
  3
triumbi.ttf
  4

  0
ENDTAB
  0
TABLE
  2
VIEW
  5
6
100
AcDbSymbolTable
 70
0
  0
ENDTAB
  0
TABLE
  2
UCS
  5
7
100
AcDbSymbolTable
 70
0
  0
ENDTAB
  0
TABLE
  2
APPID
  5
9
100
AcDbSymbolTable
 70
1
  0
APPID
  5
219
100
AcDbSymbolTableRecord
100
AcDbRegAppTableRecord
  2
ACAD
 70
0
  0
ENDTAB
  0
TABLE
  2
BLOCK_RECORD
  5
1
100
AcDbSymbolTable
 70
0
  0
BLOCK_RECORD
  5
21A
100
AcDbSymbolTableRecord
100
AcDbBlockTableRecord
  2
*Model_Space
  0
BLOCK_RECORD
  5
21B
100
AcDbSymbolTableRecord
100
AcDbBlockTableRecord
  2
*Paper_Space
  0
BLOCK_RECORD
  5
21C
100
AcDbSymbolTableRecord
100
AcDbBlockTableRecord
  2
_CLOSED
  0
BLOCK_RECORD
  5
21D
100
AcDbSymbolTableRecord
100
AcDbBlockTableRecord
  2
*D0
  0
BLOCK_RECORD
  5
21E
100
AcDbSymbolTableRecord
100
AcDbBlockTableRecord
  2
*D1
  0
BLOCK_RECORD
  5
21F
100
AcDbSymbolTableRecord
100
AcDbBlockTableRecord
  2
*D2
  0
ENDTAB
  0
TABLE
  2
DIMSTYLE
  5
A
100
AcDbSymbolTable
 70
1
100
AcDbDimStyleTable
 71
0
  0
DIMSTYLE
105
220
100
AcDbSymbolTableRecord
100
AcDbDimStyleTableRecord
  2
STANDARD
 70
0
  3

  4

 40
1.0
 41
0.1875
 42
0.0625
 43
0.38
 44
0.125
 45
0.0
 46
0.0
 47
0.001
 48
0.001
140
0.15625
141
0.09
142
0.0
143
25.4
144
1.0
145
0.0
146
1.0
147
0.09
 71
0.0
 72
0.0
 73
1
 74
1
 75
0
 76
0
 77
0
 78
4
170
0
171
2
172
0
173
0
174
0
175
0
176
0
177
0
178
0
270
2
271
3
272
3
273
2
274
2
275
0
280
0
281
0
282
0
283
1
284
4
285
0
286
0
287
3
288
0
340
11
278
46
341
21C
342
21C
343
21C
344
21C
  0
DIMSTYLE
105
221
100
AcDbSymbolTableRecord
100
AcDbDimStyleTableRecord
  2
DIMSTYLE_1
 70
0
  3
<>
  4

 40
1.0
 41
0.1875
 42
0.0625
 43
0.38
 44
0.125
 45
0.0
 46
0.0
 47
0.0
 48
0.0
140
0.25
141
0.09
142
0.0
143
25.4
144
1.0
145
0.0
146
1.0
147
0.09
 71
0.0
 72
0.0
 73
1
 74
1
 75
0
 76
0
 77
0
 78
4
170
0
171
2
172
0
173
0
174
0
175
0
176
0
177
0
178
0
270
2
271
1
272
1
273
2
274
2
275
0
280
0
281
0
282
0
283
1
284
4
285
0
286
0
287
3
288
0
340
217
278
46
341
21C
342
21C
343
21C
344
21C
  0
DIMSTYLE
105
222
100
AcDbSymbolTableRecord
100
AcDbDimStyleTableRecord
  2
DIMSTYLE_2
 70
0
  3

  4

 40
1.0
 41
0.1875
 42
0.0625
 43
0.38
 44
0.125
 45
0.0
 46
0.0
 47
0.0
 48
0.0
140
0.25
141
0.09
142
0.0
143
25.4
144
1.0
145
0.0
146
1.0
147
0.125
 71
0.0
 72
0.0
 73
1
 74
1
 75
0
 76
0
 77
0
 78
4
170
0
171
2
172
0
173
0
174
0
175
0
176
0
177
0
178
0
270
2
271
1
272
1
273
2
274
2
275
0
280
0
281
0
282
0
283
1
284
4
285
0
286
0
287
3
288
0
340
217
278
46
341
21C
342
21C
343
21C
344
21C
  0
ENDTAB
  0
ENDSEC
  0
SECTION
  2
BLOCKS
  0
BLOCK
  5
20
100
AcDbEntity
  8
0
100
AcDbBlockBegin
  2
*Model_Space
 70
0
 10
0.0
 20
0.0
 30
0.0
  3
*Model_Space
  1

  0
ENDBLK
  5
21
100
AcDbEntity
  8
0
100
AcDbBlockEnd
  0
BLOCK
  5
1C
100
AcDbEntity
  8
0
100
AcDbBlockBegin
  2
*Paper_Space
 70
0
 10
0.0
 20
0.0
 30
0.0
  3
*Paper_Space
  1

  0
ENDBLK
  5
1D
100
AcDbEntity
  8
0
100
AcDbBlockEnd
  0
BLOCK
  5
223
100
AcDbEntity
  8
0
100
AcDbBlockBegin
  2
_CLOSED
 70
64
 10
0.0
 20
0.0
  3
_CLOSED
  1

  0
LINE
  5
224
100
AcDbEntity
  8
0
  6
BYBLOCK
 62
0
100
AcDbLine
 10
0.0
 20
0.0
 11
-1.0
 21
0.1666666667
  0
LINE
  5
225
100
AcDbEntity
  8
0
  6
BYBLOCK
 62
0
100
AcDbLine
 10
-1.0
 20
0.1666666667
 11
-1.0
 21
-0.1666666667
  0
LINE
  5
226
100
AcDbEntity
  8
0
  6
BYBLOCK
 62
0
100
AcDbLine
 10
-1.0
 20
-0.1666666667
 11
0.0
 21
0.0
  0
LINE
  5
227
100
AcDbEntity
  8
0
  6
BYBLOCK
 62
0
100
AcDbLine
 10
-1.0
 20
0.0
 11
0.0
 21
0.0
  0
ENDBLK
  5
228
100
AcDbEntity
  8
0
  6
BYBLOCK
 62
0
100
AcDbBlockEnd
  0
BLOCK
  5
229
100
AcDbEntity
  8
0
100
AcDbBlockBegin
 62
2
  6
CONTINUOUS
  2
*D0
 70
65
 10
0.0
 20
0.0
  3
*D0
  1

  0
MTEXT
  5
22A
100
AcDbEntity
  8
0
100
AcDbMText
 62
2
  6
CONTINUOUS
  7
TEXTSTYLE_2
 71
1
 72
1
 10
4.4734672954
 20
25.9490901864
 30
0.0
 11
1.0
 21
0.0
 31
0.0
 44
0.9
  1
10mm(R.4")
 40
0.25
 41
1.9796296296
  0
LINE
  5
22B
100
AcDbEntity
  8
0
100
AcDbLine
 62
2
  6
CONTINUOUS
 10
2.7138783576
 20
26.9234312704
 11
4.2234672954
 21
25.8240901864
  0
LINE
  5
22C
100
AcDbEntity
  8
0
100
AcDbLine
 62
2
  6
CONTINUOUS
 10
4.2234672954
 20
25.8240901864
 11
4.3484672954
 21
25.8240901864
  0
INSERT
  5
22D
100
AcDbEntity
  8
0
100
AcDbBlockReference
 62
2
  6
CONTINUOUS
  2
_CLOSED
 10
2.7138783576
 20
26.9234312704
 41
0.1875
 42
0.1875
 43
0.1875
 50
143.9364439053
  0
ENDBLK
  5
22E
100
AcDbEntity
  8
0
  6
BYBLOCK
 62
0
100
AcDbBlockEnd
  0
BLOCK
  5
22F
100
AcDbEntity
  8
0
100
AcDbBlockBegin
 62
2
  6
CONTINUOUS
  2
*D1
 70
65
 10
0.0
 20
0.0
  3
*D1
  1

  0
MTEXT
  5
230
100
AcDbEntity
  8
0
100
AcDbMText
 62
2
  6
CONTINUOUS
  7
TEXTSTYLE_2
 71
2
 72
1
 10
34.2163320719
 20
20.2408461906
 30
0.0
 11
1.0
 21
0.0
 31
0.0
 44
0.9
  1
482mm(19.0")
 40
0.25
 41
2.3305555556
  0
LINE
  5
231
100
AcDbEntity
  8
0
100
AcDbLine
 62
2
  6
CONTINUOUS
 10
40.4322305183
 20
27.0853673715
 11
34.0913320719
 21
27.0853673715
  0
LINE
  5
232
100
AcDbEntity
  8
0
100
AcDbLine
 62
2
  6
CONTINUOUS
 10
40.4322305183
 20
8.0853673715
 11
34.0913320719
 21
8.0853673715
  0
LINE
  5
233
100
AcDbEntity
  8
0
100
AcDbLine
 62
2
  6
CONTINUOUS
 10
34.2163320719
 20
27.0853673715
 11
34.2163320719
 21
20.3658461906
  0
LINE
  5
234
100
AcDbEntity
  8
0
100
AcDbLine
 62
2
  6
CONTINUOUS
 10
34.2163320719
 20
8.0853673715
 11
34.2163320719
 21
19.8658461906
  0
INSERT
  5
235
100
AcDbEntity
  8
0
100
AcDbBlockReference
 62
2
  6
CONTINUOUS
  2
_CLOSED
 10
34.2163320719
 20
27.0853673715
 41
0.1875
 42
0.1875
 43
0.1875
 50
90.0
  0
INSERT
  5
236
100
AcDbEntity
  8
0
100
AcDbBlockReference
 62
2
  6
CONTINUOUS
  2
_CLOSED
 10
34.2163320719
 20
8.0853673715
 41
0.1875
 42
0.1875
 43
0.1875
 50
270.0
  0
ENDBLK
  5
237
100
AcDbEntity
  8
0
  6
BYBLOCK
 62
0
100
AcDbBlockEnd
  0
BLOCK
  5
238
100
AcDbEntity
  8
0
100
AcDbBlockBegin
 62
2
  6
CONTINUOUS
  2
*D2
 70
65
 10
0.0
 20
0.0
  3
*D2
  1

  0
MTEXT
  5
239
100
AcDbEntity
  8
0
100
AcDbMText
 62
2
  6
CONTINUOUS
  7
TEXTSTYLE_2
 71
2
 72
1
 10
27.2773538248
 20
13.0575915282
 30
0.0
 11
1.0
 21
0.0
 31
0.0
 44
0.9
  1
972mm(38.3")
 40
0.25
 41
2.3305555556
  0
LINE
  5
23A
100
AcDbEntity
  8
0
100
AcDbLine
 62
2
  6
CONTINUOUS
 10
40.8884313057
 20
8.5415681589
 11
40.8884313057
 21
13.0575915282
  0
LINE
  5
23B
100
AcDbEntity
  8
0
100
AcDbLine
 62
2
  6
CONTINUOUS
 10
2.6384313057
 20
8.5415681589
 11
2.6384313057
 21
13.0575915282
  0
LINE
  5
23C
100
AcDbEntity
  8
0
100
AcDbLine
 62
2
  6
CONTINUOUS
 10
40.8884313057
 20
12.9325915282
 11
28.5676316026
 21
12.9325915282
  0
LINE
  5
23D
100
AcDbEntity
  8
0
100
AcDbLine
 62
2
  6
CONTINUOUS
 10
2.6384313057
 20
12.9325915282
 11
25.987076047
 21
12.9325915282
  0
INSERT
  5
23E
100
AcDbEntity
  8
0
100
AcDbBlockReference
 62
2
  6
CONTINUOUS
  2
_CLOSED
 10
40.8884313057
 20
12.9325915282
 41
0.1875
 42
0.1875
 43
0.1875
  0
INSERT
  5
23F
100
AcDbEntity
  8
0
100
AcDbBlockReference
 62
2
  6
CONTINUOUS
  2
_CLOSED
 10
2.6384313057
 20
12.9325915282
 41
0.1875
 42
0.1875
 43
0.1875
 50
180.0
  0
ENDBLK
  5
240
100
AcDbEntity
  8
0
  6
BYBLOCK
 62
0
100
AcDbBlockEnd
  0
ENDSEC
  0
SECTION
  2
ENTITIES
  0
HATCH
  5
241
100
AcDbEntity
  8
0
100
AcDbHatch
 62
2
  6
CONTINUOUS
 10
0.0
 20
0.0
 30
0.0
210
0.0
220
0.0
230
1.0
  2
XSEC0001
 70
1
 71
0
 91
2
 92
1
 93
4
 72
1
 10
18.3855648819
 20
11.7458321352
 11
18.3855648819
 21
11.9124988018
 72
1
 10
18.3855648819
 20
11.9124988018
 11
19.3855648819
 21
11.9124988018
 72
1
 10
19.3855648819
 20
11.9124988018
 11
19.3855648819
 21
11.7458321352
 72
1
 10
19.3855648819
 20
11.7458321352
 11
18.3855648819
 21
11.7458321352
 97
0
 92
1
 93
4
 72
1
 10
12.0207354856
 20
11.7458321352
 11
11.0207354856
 21
11.7458321352
 72
1
 10
11.0207354856
 20
11.7458321352
 11
11.0207354856
 21
11.9124988018
 72
1
 10
11.0207354856
 20
11.9124988018
 11
12.0207354856
 21
11.9124988018
 72
1
 10
12.0207354856
 20
11.9124988018
 11
12.0207354856
 21
11.7458321352
 97
0
 75
0
 76
1
 98
1
 10
0.0
 20
0.0
  0
HATCH
  5
242
100
AcDbEntity
  8
0
100
AcDbHatch
 62
2
  6
CONTINUOUS
 10
0.0
 20
0.0
 30
0.0
210
0.0
220
0.0
230
1.0
  2
default__1
 70
1
 71
0
 91
1
 92
1
 93
76
 72
1
 10
11.9901610982
 20
11.9124988018
 11
12.124440599
 21
11.9124988018
 72
2
 10
11.9901610982
 20
11.8993754423
 40
0.0131233596
 50
90.0
 51
169.0
 73
1
 72
1
 10
11.9748789207
 20
11.8895329226
 11
11.9772788517
 21
11.9018794973
 72
1
 10
11.9551186877
 20
11.8895329226
 11
11.9748789207
 21
11.8895329226
 72
1
 10
11.959624367
 20
11.9410330733
 11
11.9551186877
 21
11.8895329226
 72
2
 10
11.9857712095
 20
11.938745521
 40
0.0262467192
 50
90.0
 51
175.0
 73
1
 72
1
 10
11.9857712095
 20
11.9649922402
 11
12.1610191247
 21
11.9649922402
 72
2
 10
12.1610191247
 20
11.938745521
 40
0.0262467192
 50
45.0847506526
 51
90.0
 73
1
 72
2
 10
12.1980826455
 20
11.9759188514
 40
0.0262467192
 50
225.0847506526
 51
269.0
 73
1
 72
1
 10
12.3082907311
 20
11.9477444448
 11
12.1976245771
 21
11.9496761297
 72
2
 10
12.3082735535
 20
11.9467603428
 40
0.000984252
 50
3.0000000001
 51
89.0000000001
 73
1
 72
1
 10
12.3092564566
 20
11.9468118545
 11
12.3094013608
 21
11.9440469167
 72
2
 10
12.3103842639
 20
11.9440984285
 40
0.000984252
 50
182.9999999999
 51
268.9999999999
 73
1
 72
1
 10
12.3682103461
 20
11.9421046685
 11
12.3103670864
 21
11.9431143264
 72
2
 10
12.3682275237
 20
11.9430887706
 40
0.000984252
 50
269.0
 51
356.9999999999
 73
1
 72
1
 10
12.3693514729
 20
11.9457285789
 11
12.3692104268
 21
11.9430372588
 72
2
 10
12.370334376
 20
11.9456770671
 40
0.000984252
 50
89.0000000001
 51
177.0
 73
1
 72
1
 10
13.5791344357
 20
11.9255617855
 11
12.3703515535
 21
11.9466611691
 72
1
 10
13.5791344357
 20
11.9255617855
 11
14.9734913911
 21
11.893256458
 72
1
 10
15.0581425018
 20
11.8917788674
 11
14.9734913911
 21
11.893256458
 72
2
 10
15.0576844334
 20
11.8655361457
 40
0.0262467192
 50
7.0
 51
89.0
 73
1
 72
1
 10
15.0837355135
 20
11.8687348161
 11
15.2233600157
 21
10.7315844999
 72
2
 10
15.2884877161
 20
10.7395811756
 40
0.065616798
 50
186.9999996113
 51
268.7010380446
 73
1
 72
1
 10
15.3091126423
 20
10.6734794319
 11
15.2870002342
 21
10.6739812327
 72
2
 10
15.3088893417
 20
10.6636394456
 40
0.0098425197
 50
45.0
 51
88.7
 73
1
 72
1
 10
15.3221470574
 20
10.6643011548
 11
15.3158490542
 21
10.670599158
 72
2
 10
15.3244669615
 20
10.666621059
 40
0.0032808399
 50
225.0
 51
261.0000000003
 73
1
 72
1
 10
15.4526162002
 20
10.6430024775
 11
15.3239537251
 21
10.6633806117
 72
2
 10
15.4510764909
 20
10.6332811356
 40
0.0098425197
 50
45.0
 51
81.0000000003
 73
1
 72
1
 10
15.4648635928
 20
10.6334134585
 11
15.4580362033
 21
10.640240848
 72
2
 10
15.4671834969
 20
10.6357333627
 40
0.0032808399
 50
225.0
 51
261.0000000003
 73
1
 72
1
 10
15.5057180066
 20
10.6263083599
 11
15.4666702605
 21
10.6324929154
 72
2
 10
15.510850371
 20
10.658712833
 40
0.032808399
 50
261.0000000003
 51
270.0
 73
1
 72
1
 10
15.510850371
 20
10.6259044341
 11
15.8928253246
 21
10.6259044341
 72
2
 10
15.8928253246
 20
10.658712833
 40
0.032808399
 50
270.0
 51
278.9999999997
 73
1
 72
1
 10
15.8979576889
 20
10.6263083599
 11
15.9370054351
 21
10.6324929154
 72
2
 10
15.9364921986
 20
10.6357333627
 40
0.0032808399
 50
278.9999999997
 51
315.0
 73
1
 72
1
 10
15.9388121028
 20
10.6334134585
 11
15.9456394923
 21
10.640240848
 72
2
 10
15.9525992047
 20
10.6332811356
 40
0.0098425197
 50
98.9999999997
 51
135.0
 73
1
 72
1
 10
15.9510594954
 20
10.6430024775
 11
16.0797219705
 21
10.6633806117
 72
2
 10
16.0792087341
 20
10.666621059
 40
0.0032808399
 50
278.9999999997
 51
315.0
 73
1
 72
1
 10
16.0815286382
 20
10.6643011548
 11
16.0878266414
 21
10.670599158
 72
2
 10
16.0947863538
 20
10.6636394456
 40
0.0098425197
 50
91.2999999999
 51
135.0
 73
1
 72
1
 10
16.0945630533
 20
10.6734794319
 11
18.011720718
 21
10.7169858255
 72
2
 10
18.0102320497
 20
10.7825856909
 40
0.0656167978
 50
271.3000182716
 51
352.9999997953
 73
1
 72
1
 10
18.2186929426
 20
11.9419441914
 11
18.0753597498
 21
10.7745890146
 72
2
 10
18.2447440227
 20
11.938745521
 40
0.0262467192
 50
90.0
 51
173.0
 73
1
 72
1
 10
18.2447440227
 20
11.9649922402
 11
18.420529158
 21
11.9649922402
 72
2
 10
18.420529158
 20
11.938745521
 40
0.0262467192
 50
5.0
 51
90.0
 73
1
 72
1
 10
18.4466760004
 20
11.9410330733
 11
18.4511816798
 21
11.8895329226
 72
1
 10
18.4314214468
 20
11.8895329226
 11
18.4511816798
 21
11.8895329226
 72
1
 10
18.4314214468
 20
11.8895329226
 11
18.4290215158
 21
11.9018794973
 72
2
 10
18.4161392693
 20
11.8993754423
 40
0.0131233596
 50
11.0
 51
90.0
 73
1
 72
1
 10
18.2845753369
 20
11.9124988018
 11
18.4161392693
 21
11.9124988018
 72
2
 10
18.2845753369
 20
11.8862520827
 40
0.0262467192
 50
90.0
 51
173.0
 73
1
 72
1
 10
18.2585242568
 20
11.8894507531
 11
18.1208325129
 21
10.76804149
 72
2
 10
18.0036026548
 20
10.7824355101
 40
0.1181102342
 50
271.2999935459
 51
352.9999983448
 73
1
 72
1
 10
16.1820598322
 20
10.6229580585
 11
18.0062822528
 21
10.6643554564
 72
2
 10
16.1850371725
 20
10.491758241
 40
0.1312335958
 50
91.2999999999
 51
98.9999999997
 73
1
 72
1
 10
15.9710729906
 20
10.5907390829
 11
16.1645077152
 21
10.6213761335
 72
2
 10
15.9782583007
 20
10.5453728205
 40
0.0459317585
 50
98.9999999997
 51
126.3689212421
 73
1
 72
2
 10
15.9237848699
 20
10.6193427543
 40
0.0459317585
 50
270.0
 51
306.3689212421
 73
1
 72
1
 10
15.4798908256
 20
10.5734109958
 11
15.9237848699
 21
10.5734109958
 72
2
 10
15.4798908256
 20
10.6193427543
 40
0.0459317585
 50
233.6310787579
 51
270.0
 73
1
 72
2
 10
15.4254173949
 20
10.5453728205
 40
0.0459317585
 50
53.6310787579
 51
81.0000000003
 73
1
 72
1
 10
15.4326027049
 20
10.5907390829
 11
15.277558215
 21
10.6152957176
 72
2
 10
15.2960345665
 20
10.7319542918
 40
0.1181096705
 50
187.000187895
 51
261.000264215
 73
1
 72
1
 10
15.0466001946
 20
11.7942842575
 11
15.1788053148
 21
10.7175599593
 72
2
 10
14.9944980344
 20
11.7878869166
 40
0.0524934383
 50
7.0
 51
89.0
 73
1
 72
1
 10
14.9954141712
 20
11.8403723599
 11
14.9245529231
 21
11.8416092476
 72
2
 10
14.9256980941
 20
11.9072160517
 40
0.0656167979
 50
264.2421965568
 51
269.0
 73
1
 72
2
 10
14.916482018
 20
11.8158159986
 40
0.0262467192
 50
84.2421965568
 51
88.6727732601
 73
1
 72
1
 10
13.5780684215
 20
11.8730789583
 11
14.9170899552
 21
11.8420556762
 72
1
 10
13.5780684215
 20
11.8730789583
 11
12.177109408
 21
11.8975327888
 72
2
 10
12.1784836132
 20
11.9762609538
 40
0.0787401575
 50
239.0186049163
 51
269.0
 73
1
 72
2
 10
12.124440599
 20
11.8862520827
 40
0.0262467192
 50
59.0186049163
 51
90.0
 73
1
 97
0
 75
0
 76
1
 98
1
 10
0.0
 20
0.0
  0
DIMENSION
  5
243
100
AcDbEntity
  8
0
100
AcDbDimension
 62
2
  6
CONTINUOUS
  2
*D0
 10
3.0321320931
 20
26.6916665841
 11
5.4632821102
 21
25.8240901864
 70
164
 71
1
 42
0.3937007874
  1
10mm(R<>")
  3
DIMSTYLE_1
100
AcDbRadialDimension
 15
2.7138783576
 25
26.9234312704
  0
DIMENSION
  5
244
100
AcDbEntity
  8
0
100
AcDbDimension
 62
2
  6
CONTINUOUS
  2
*D1
 10
34.2163320719
 20
8.0853673715
 11
34.2163320719
 21
20.1158461906
 70
160
 71
2
 42
19.0
  1
482mm(<>")
  3
DIMSTYLE_2
100
AcDbAlignedDimension
 13
40.4947305183
 23
27.0853673715
 14
40.4947305183
 24
8.0853673715
 50
270.0
100
AcDbRotatedDimension
  0
DIMENSION
  5
245
100
AcDbEntity
  8
0
100
AcDbDimension
 62
2
  6
CONTINUOUS
  2
*D2
 10
2.6384313057
 20
12.9325915282
 11
27.2773538248
 21
12.9325915282
 70
160
 71
2
 42
38.25
  1
972mm(<>")
  3
DIMSTYLE_2
100
AcDbAlignedDimension
 13
40.8884313057
 23
8.4790681589
 14
2.6384313057
 24
8.4790681589
 50
180.0
100
AcDbRotatedDimension
  0
LEADER
  5
246
100
AcDbEntity
  8
0
100
AcDbLeader
 62
2
  6
CONTINUOUS
  3
STANDARD
 71
1
 72
0
 73
0
 75
0
 40
0.25
 41
1.6212962963
 76
3
 10
40.8884313057
 20
10.5611274592
 30
0.0
 10
37.9333605305
 20
11.4268313667
 30
0.0
 10
37.6833605305
 20
11.4268313667
 30
0.0
340
247
1001
ACAD
1000
DSTYLE
1002
{
1070
77
1070
0
1002
}
  0
MTEXT
  5
247
102
{ACAD_REACTORS
330
246
102
}
100
AcDbEntity
  8
0
100
AcDbMText
 62
2
  6
CONTINUOUS
  7
TEXTSTYLE_2
 71
3
 72
1
 10
37.6833605305
 20
11.5518313667
 30
0.0
 11
1.0
 21
0.0
 31
0.0
 44
0.9
  1
CUT LINE
 40
0.25
 41
1.6212962963
  0
MTEXT
  5
248
100
AcDbEntity
  8
0
100
AcDbMText
 62
2
  6
CONTINUOUS
  7
TEXTSTYLE_2
 71
1
 72
1
 10
11.6542214929
 20
21.004265896
 30
0.0
 11
1.0
 21
0.0
 31
0.0
 44
0.9
  1
www.bocchiusa.com\P \PModel No. 1635-xxx-0126\P \P\Ftriumbi.ttf;\H0.75;Drop-in\P\Ftriumb.ttf;\H0.437; \PCustomer Service: +1 877-565-2221
 40
0.437
 41
10.615862963
  0
MTEXT
  5
249
100
AcDbEntity
  8
0
100
AcDbMText
 62
2
  6
CONTINUOUS
  7
TEXTSTYLE_2
 71
1
 72
1
 10
11.6023340921
 20
15.2540129423
 30
0.0
 11
1.0
 21
0.0
 31
0.0
 44
0.9
  1
Note:  Cutout template is provided as a guide only and\Pmust be checked against actual sink to verify correct fit.
 40
0.25
 41
9.4712962963
  0
MTEXT
  5
24A
100
AcDbEntity
  8
0
100
AcDbMText
 62
2
  6
CONTINUOUS
  7
TEXTSTYLE_2
 71
1
 72
1
 10
41.8452632124
 20
0.6773947125
 30
0.0
 11
1.0
 21
0.0
 31
0.0
 44
0.9
  1
05/24/2023
 40
0.25
 41
1.8166666667
  0
MTEXT
  5
24B
100
AcDbEntity
  8
0
100
AcDbMText
 62
2
  6
CONTINUOUS
  7
TEXTSTYLE_2
 71
1
 72
1
 10
38.8865356606
 20
33.3934421447
 30
0.0
 11
1.0
 21
0.0
 31
0.0
 44
0.9
  1
Model No. 1635-xxx-0126
 40
0.25
 41
4.2046296296
  0
MTEXT
  5
24C
100
AcDbEntity
  8
0
100
AcDbMText
 62
2
  6
CONTINUOUS
  7
TEXTSTYLE_3
 71
1
 72
1
 10
14.6223024083
 20
9.7290010456
 30
0.0
 11
1.0
 21
0.0
 31
0.0
 44
0.9
  1
Drop-in
 40
0.25
 41
1.2231481481
  0
LINE
  5
24D
100
AcDbEntity
  8
0
100
AcDbLine
 62
7
  6
CONTINUOUS
 10
0.0
 20
0.0
 11
0.0
 21
34.0
  0
LINE
  5
24E
100
AcDbEntity
  8
0
100
AcDbLine
 62
7
  6
CONTINUOUS
 10
0.0
 20
0.0
 11
44.0
 21
0.0
  0
LINE
  5
24F
100
AcDbEntity
  8
0
100
AcDbLine
 62
7
  6
CONTINUOUS
 10
0.0
 20
34.0
 11
44.0
 21
34.0
  0
LINE
  5
250
100
AcDbEntity
  8
0
100
AcDbLine
 62
7
  6
CONTINUOUS
 10
44.0
 20
0.0
 11
44.0
 21
34.0
  0
LINE
  5
251
100
AcDbEntity
  8
03___PRT_ALL_CURVES
100
AcDbLine
 62
2
  6
CONTINUOUS
 10
2.6171320931
 20
8.4790681589
 11
2.6171320931
 21
26.6916665841
  0
LINE
  5
252
100
AcDbEntity
  8
03___PRT_ALL_CURVES
100
AcDbLine
 62
2
  6
CONTINUOUS
 10
2.6384313057
 20
8.4790681589
 11
2.6384313057
 21
26.6916665841
  0
LINE
  5
253
100
AcDbEntity
  8
0
100
AcDbLine
 62
2
  6
CONTINUOUS
 10
11.7385534515
 20
23.443655894
 11
11.7385534515
 21
21.7903029091
  0
LINE
  5
254
100
AcDbEntity
  8
0
100
AcDbLine
 62
2
  6
CONTINUOUS
 10
13.4782162368
 20
23.1575001821
 11
13.3805421796
 21
22.9508144251
  0
LINE
  5
255
100
AcDbEntity
  8
0
100
AcDbLine
 62
2
  6
CONTINUOUS
 10
12.6787793622
 20
22.9008596007
 11
12.6424510003
 21
22.8463537508
  0
LINE
  5
256
100
AcDbEntity
  8
0
100
AcDbLine
 62
2
  6
CONTINUOUS
 10
13.0251363595
 20
22.7725526172
 11
13.0966752875
 21
22.862242419
  0
LINE
  5
257
100
AcDbEntity
  8
0
100
AcDbLine
 62
2
  6
CONTINUOUS
 10
13.6439959922
 20
23.3391686056
 11
13.4782162368
 21
23.1575001821
  0
LINE
  5
258
100
AcDbEntity
  8
0
100
AcDbLine
 62
2
  6
CONTINUOUS
 10
12.1882267131
 20
22.7918479009
 11
12.1837023018
 21
23.0916300754
  0
LINE
  5
259
100
AcDbEntity
  8
0
100
AcDbLine
 62
2
  6
CONTINUOUS
 10
12.1837023018
 20
22.1423021135
 11
12.1837023018
 21
22.4761504442
  0
LINE
  5
25A
100
AcDbEntity
  8
0
100
AcDbLine
 62
2
  6
CONTINUOUS
 10
12.6787793622
 20
22.9712541188
 11
12.6787793622
 21
22.9008596007
  0
LINE
  5
25B
100
AcDbEntity
  8
0
100
AcDbLine
 62
2
  6
CONTINUOUS
 10
12.7457938788
 20
22.3512766904
 11
12.7457938788
 21
22.2592980687
  0
LINE
  5
25C
100
AcDbEntity
  8
0
100
AcDbLine
 62
2
  6
CONTINUOUS
 10
12.9195312754
 20
22.62151712
 11
12.9195312754
 21
22.7055381005
  0
LINE
  5
25D
100
AcDbEntity
  8
0
100
AcDbLine
 62
2
  6
CONTINUOUS
 10
13.1261904182
 20
22.9826183756
 11
13.1261904182
 21
23.0848168441
  0
LINE
  5
25E
100
AcDbEntity
  8
0
100
AcDbLine
 62
2
  6
CONTINUOUS
 10
13.1738830368
 20
22.1105247772
 11
13.1738830368
 21
22.3921560778
  0
LINE
  5
25F
100
AcDbEntity
  8
0
100
AcDbLine
 62
2
  6
CONTINUOUS
 10
13.3805421796
 20
22.9508144251
 11
13.351027049
 21
22.6601343017
  0
LINE
  5
260
100
AcDbEntity
  8
0
100
AcDbLine
 62
2
  6
CONTINUOUS
 10
13.0966752875
 20
22.862242419
 11
13.1261904182
 21
22.9826183756
  0
LINE
  5
261
100
AcDbEntity
  8
0
100
AcDbLine
 62
2
  6
CONTINUOUS
 10
14.6160258534
 20
22.4671016214
 11
14.5683332348
 21
22.3671387444
  0
LINE
  5
262
100
AcDbEntity
  8
0
100
AcDbLine
 62
2
  6
CONTINUOUS
 10
13.82340221
 20
22.8531669821
 11
13.8710948287
 21
22.9326635512
  0
LINE
  5
263
100
AcDbEntity
  8
0
100
AcDbLine
 62
2
  6
CONTINUOUS
 10
13.0603203115
 20
21.9583448701
 11
13.1738830368
 21
22.1105247772
  0
LINE
  5
264
100
AcDbEntity
  8
0
100
AcDbLine
 62
2
  6
CONTINUOUS
 10
14.5683332348
 20
22.3671387444
 11
14.5002009224
 21
22.2785667383
  0
LINE
  5
265
100
AcDbEntity
  8
0
100
AcDbLine
 62
2
  6
CONTINUOUS
 10
13.8710948287
 20
22.9326635512
 11
13.9415159609
 21
23.0189467374
  0
LINE
  5
266
100
AcDbEntity
  8
0
100
AcDbLine
 62
2
  6
CONTINUOUS
 10
12.7457938788
 20
22.2592980687
 11
12.6833303877
 21
22.1968079634
  0
LINE
  5
267
100
AcDbEntity
  8
0
100
AcDbLine
 62
2
  6
CONTINUOUS
 10
12.9286067123
 20
21.844808759
 11
13.0603203115
 21
21.9583448701
  0
LINE
  5
268
100
AcDbEntity
  8
0
100
AcDbLine
 62
2
  6
CONTINUOUS
 10
13.7575587175
 20
23.4368426628
 11
13.6439959922
 21
23.3391686056
  0
LINE
  5
269
100
AcDbEntity
  8
0
100
AcDbLine
 62
2
  6
CONTINUOUS
 10
15.6629746441
 20
23.398225481
 11
15.4813062205
 21
23.2437833683
  0
LINE
  5
26A
100
AcDbEntity
  8
0
100
AcDbLine
 62
2
  6
CONTINUOUS
 10
13.9415159609
 20
23.0189467374
 11
14.030087967
 21
23.0825546384
  0
LINE
  5
26B
100
AcDbEntity
  8
0
100
AcDbLine
 62
2
  6
CONTINUOUS
 10
12.6424510003
 20
22.8463537508
 11
12.5584300198
 21
22.7918479009
  0
LINE
  5
26C
100
AcDbEntity
  8
0
100
AcDbLine
 62
2
  6
CONTINUOUS
 10
12.9195312754
 20
22.7055381005
 11
13.0251363595
 21
22.7725526172
  0
LINE
  5
26D
100
AcDbEntity
  8
0
100
AcDbLine
 62
2
  6
CONTINUOUS
 10
13.9165252417
 20
23.5117882064
 11
13.7575587175
 21
23.4368426628
  0
LINE
  5
26E
100
AcDbEntity
  8
03___PRT_ALL_CURVES
100
AcDbLine
 62
2
  6
CONTINUOUS
 10
40.4947305183
 20
8.0640681589
 11
3.0321320931
 21
8.0640681589
  0
LINE
  5
26F
100
AcDbEntity
  8
03___PRT_ALL_CURVES
100
AcDbLine
 62
2
  6
CONTINUOUS
 10
40.4947305183
 20
8.0853673715
 11
3.0321320931
 21
8.0853673715
  0
LINE
  5
270
100
AcDbEntity
  8
0
100
AcDbLine
 62
2
  6
CONTINUOUS
 10
13.82340221
 20
22.4693372129
 11
13.82340221
 21
22.8531669821
  0
LINE
  5
271
100
AcDbEntity
  8
0
100
AcDbLine
 62
2
  6
CONTINUOUS
 10
14.6364655471
 20
22.7327910255
 11
14.6364655471
 21
22.5919753752
  0
LINE
  5
272
100
AcDbEntity
  8
0
100
AcDbLine
 62
2
  6
CONTINUOUS
 10
14.6364655471
 20
22.5919753752
 11
14.6160258534
 21
22.4671016214
  0
LINE
  5
273
100
AcDbEntity
  8
0
100
AcDbLine
 62
2
  6
CONTINUOUS
 10
15.7402090075
 20
22.6782851756
 11
15.7719863439
 21
22.8191008259
  0
LINE
  5
274
100
AcDbEntity
  8
0
100
AcDbLine
 62
2
  6
CONTINUOUS
 10
15.3609302639
 20
23.0553017135
 11
15.3132376453
 21
22.862242419
  0
LINE
  5
275
100
AcDbEntity
  8
0
100
AcDbLine
 62
2
  6
CONTINUOUS
 10
15.0497838327
 20
22.3512766904
 11
15.0884010145
 21
22.5034033691
  0
LINE
  5
276
100
AcDbEntity
  8
0
100
AcDbLine
 62
2
  6
CONTINUOUS
 10
15.7719863439
 20
22.8191008259
 11
15.8476425156
 21
22.9845692675
  0
LINE
  5
277
100
AcDbEntity
  8
0
100
AcDbLine
 62
2
  6
CONTINUOUS
 10
14.949874184
 20
22.1650306271
 11
15.0497838327
 21
22.3512766904
  0
LINE
  5
278
100
AcDbEntity
  8
0
100
AcDbLine
 62
2
  6
CONTINUOUS
 10
15.4813062205
 20
23.2437833683
 11
15.3609302639
 21
23.0553017135
  0
LINE
  5
279
100
AcDbEntity
  8
0
100
AcDbLine
 62
2
  6
CONTINUOUS
 10
17.2232045974
 20
23.3369063999
 11
17.0733135101
 21
23.139322694
  0
LINE
  5
27A
100
AcDbEntity
  8
0
100
AcDbLine
 62
2
  6
CONTINUOUS
 10
14.7908810457
 20
21.9855977951
 11
14.949874184
 21
22.1650306271
  0
LINE
  5
27B
100
AcDbEntity
  8
0
100
AcDbLine
 62
2
  6
CONTINUOUS
 10
16.5032909061
 20
22.8940463695
 11
16.8303792338
 21
23.1802020815
  0
LINE
  5
27C
100
AcDbEntity
  8
0
100
AcDbLine
 62
2
  6
CONTINUOUS
 10
16.5146285487
 20
22.3966804892
 11
16.3715506927
 21
22.283144378
  0
LINE
  5
27D
100
AcDbEntity
  8
0
100
AcDbLine
 62
2
  6
CONTINUOUS
 10
15.8476425156
 20
22.9845692675
 11
15.9900097434
 21
23.0938922811
  0
LINE
  5
27E
100
AcDbEntity
  8
0
100
AcDbLine
 62
2
  6
CONTINUOUS
 10
17.3594692221
 20
23.4391048685
 11
17.2232045974
 21
23.3369063999
  0
LINE
  5
27F
100
AcDbEntity
  8
0
100
AcDbLine
 62
2
  6
CONTINUOUS
 10
14.6341767273
 20
21.8856881464
 11
14.7908810457
 21
21.9855977951
  0
LINE
  5
280
100
AcDbEntity
  8
0
100
AcDbLine
 62
2
  6
CONTINUOUS
 10
14.5002009224
 20
22.2785667383
 11
14.3798249658
 21
22.2081988344
  0
LINE
  5
281
100
AcDbEntity
  8
0
100
AcDbLine
 62
2
  6
CONTINUOUS
 10
12.8195950125
 20
21.7903029091
 11
12.9286067123
 21
21.844808759
  0
LINE
  5
282
100
AcDbEntity
  8
0
100
AcDbLine
 62
2
  6
CONTINUOUS
 10
12.6833303877
 20
22.1968079634
 11
12.5697676624
 21
22.1423021135
  0
LINE
  5
283
100
AcDbEntity
  8
0
100
AcDbLine
 62
2
  6
CONTINUOUS
 10
15.8560339386
 20
23.4867974871
 11
15.6629746441
 21
23.398225481
  0
LINE
  5
284
100
AcDbEntity
  8
0
100
AcDbLine
 62
2
  6
CONTINUOUS
 10
14.030087967
 20
23.0825546384
 11
14.1267438063
 21
23.1167711831
  0
LINE
  5
285
100
AcDbEntity
  8
0
100
AcDbLine
 62
2
  6
CONTINUOUS
 10
13.351027049
 20
22.6601343017
 11
13.3805421796
 21
22.3943916693
  0
LINE
  5
286
100
AcDbEntity
  8
0
100
AcDbLine
 62
2
  6
CONTINUOUS
 10
15.3132376453
 20
22.5761133212
 11
15.3314151333
 21
22.3603255131
  0
LINE
  5
287
100
AcDbEntity
  8
0
100
AcDbLine
 62
2
  6
CONTINUOUS
 10
15.0884010145
 20
22.5034033691
 11
15.0884010145
 21
22.7577817447
  0
LINE
  5
288
100
AcDbEntity
  8
0
100
AcDbLine
 62
2
  6
CONTINUOUS
 10
15.3132376453
 20
22.862242419
 11
15.3132376453
 21
22.5761133212
  0
LINE
  5
289
100
AcDbEntity
  8
0
100
AcDbLine
 62
2
  6
CONTINUOUS
 10
15.7402090075
 20
22.5556736275
 11
15.7402090075
 21
22.6782851756
  0
LINE
  5
28A
100
AcDbEntity
  8
0
100
AcDbLine
 62
2
  6
CONTINUOUS
 10
17.0733135101
 20
23.139322694
 11
16.9688794501
 21
22.9462900137
  0
LINE
  5
28B
100
AcDbEntity
  8
0
100
AcDbLine
 62
2
  6
CONTINUOUS
 10
17.3912997868
 20
22.8145498003
 11
17.4933977363
 21
22.9772700511
  0
LINE
  5
28C
100
AcDbEntity
  8
0
100
AcDbLine
 62
2
  6
CONTINUOUS
 10
16.700874612
 20
22.0264771825
 11
16.8121751316
 21
22.1605062158
  0
LINE
  5
28D
100
AcDbEntity
  8
0
100
AcDbLine
 62
2
  6
CONTINUOUS
 10
18.0703340906
 20
22.3376502279
 11
17.9636112107
 21
22.2150120656
  0
LINE
  5
28E
100
AcDbEntity
  8
0
100
AcDbLine
 62
2
  6
CONTINUOUS
 10
18.1475684541
 20
22.4239334141
 11
18.0703340906
 21
22.3376502279
  0
LINE
  5
28F
100
AcDbEntity
  8
0
100
AcDbLine
 62
2
  6
CONTINUOUS
 10
17.4933977363
 20
22.9772700511
 11
17.596652509
 21
23.0804976372
  0
LINE
  5
290
100
AcDbEntity
  8
0
100
AcDbLine
 62
2
  6
CONTINUOUS
 10
16.5534000667
 20
21.8971337594
 11
16.700874612
 21
22.0264771825
  0
LINE
  5
291
100
AcDbEntity
  8
0
100
AcDbLine
 62
2
  6
CONTINUOUS
 10
18.1475684541
 20
22.907672832
 11
18.4723147336
 21
23.166575619
  0
LINE
  5
292
100
AcDbEntity
  8
0
100
AcDbLine
 62
2
  6
CONTINUOUS
 10
16.3715506927
 20
22.283144378
 11
16.271641044
 21
22.2172476571
  0
LINE
  5
293
100
AcDbEntity
  8
0
100
AcDbLine
 62
2
  6
CONTINUOUS
 10
18.1725325592
 20
21.8925013776
 11
18.3519653912
 21
22.0083263087
  0
LINE
  5
294
100
AcDbEntity
  8
0
100
AcDbLine
 62
2
  6
CONTINUOUS
 10
16.3761283325
 20
21.8311822965
 11
16.5534000667
 21
21.8971337594
  0
LINE
  5
295
100
AcDbEntity
  8
0
100
AcDbLine
 62
2
  6
CONTINUOUS
 10
17.557052928
 20
23.5004239496
 11
17.3594692221
 21
23.4391048685
  0
LINE
  5
296
100
AcDbEntity
  8
0
100
AcDbLine
 62
2
  6
CONTINUOUS
 10
12.6992190559
 20
22.4398486965
 11
12.7457938788
 21
22.3512766904
  0
LINE
  5
297
100
AcDbEntity
  8
0
100
AcDbLine
 62
2
  6
CONTINUOUS
 10
13.3805421796
 20
22.3943916693
 11
13.4827406482
 21
22.1741326782
  0
LINE
  5
298
100
AcDbEntity
  8
0
100
AcDbLine
 62
2
  6
CONTINUOUS
 10
13.1261904182
 20
23.0848168441
 11
13.0716845683
 21
23.2256324944
  0
LINE
  5
299
100
AcDbEntity
  8
0
100
AcDbLine
 62
2
  6
CONTINUOUS
 10
14.6069238023
 20
22.8736066758
 11
14.6364655471
 21
22.7327910255
  0
LINE
  5
29A
100
AcDbEntity
  8
0
100
AcDbLine
 62
2
  6
CONTINUOUS
 10
16.9416265251
 20
22.7214533829
 11
16.9416265251
 21
22.5510959878
  0
LINE
  5
29B
100
AcDbEntity
  8
0
100
AcDbLine
 62
2
  6
CONTINUOUS
 10
16.9688794501
 20
22.9462900137
 11
16.9416265251
 21
22.7214533829
  0
LINE
  5
29C
100
AcDbEntity
  8
0
100
AcDbLine
 62
2
  6
CONTINUOUS
 10
17.3662824533
 20
22.6328813768
 11
17.3912997868
 21
22.8145498003
  0
LINE
  5
29D
100
AcDbEntity
  8
0
100
AcDbLine
 62
2
  6
CONTINUOUS
 10
18.3519653912
 20
22.0083263087
 11
18.4791279649
 21
22.1763682697
  0
LINE
  5
29E
100
AcDbEntity
  8
0
100
AcDbLine
 62
2
  6
CONTINUOUS
 10
13.1738830368
 20
22.3921560778
 11
13.0853110307
 21
22.5397583452
  0
LINE
  5
29F
100
AcDbEntity
  8
0
100
AcDbLine
 62
2
  6
CONTINUOUS
 10
12.6449869037
 20
23.0332069594
 11
12.6787793622
 21
22.9712541188
  0
LINE
  5
2A0
100
AcDbEntity
  8
0
100
AcDbLine
 62
2
  6
CONTINUOUS
 10
13.8801968798
 20
22.3558011018
 11
13.82340221
 21
22.4693372129
  0
LINE
  5
2A1
100
AcDbEntity
  8
0
100
AcDbLine
 62
2
  6
CONTINUOUS
 10
15.0884010145
 20
22.7577817447
 11
15.0429706015
 21
22.9667297074
  0
LINE
  5
2A2
100
AcDbEntity
  8
0
100
AcDbLine
 62
2
  6
CONTINUOUS
 10
18.6738142493
 20
23.4624207855
 11
18.6648079375
 21
21.794239917
  0
LINE
  5
2A3
100
AcDbEntity
  8
0
100
AcDbLine
 62
2
  6
CONTINUOUS
 10
13.0716845683
 20
23.2256324944
 11
12.9558596372
 21
23.3687103504
  0
LINE
  5
2A4
100
AcDbEntity
  8
0
100
AcDbLine
 62
2
  6
CONTINUOUS
 10
15.3314151333
 20
22.3603255131
 11
15.4176983195
 21
22.1854703208
  0
LINE
  5
2A5
100
AcDbEntity
  8
0
100
AcDbLine
 62
2
  6
CONTINUOUS
 10
15.0429706015
 20
22.9667297074
 11
14.9430609528
 21
23.1733888502
  0
LINE
  5
2A6
100
AcDbEntity
  8
0
100
AcDbLine
 62
2
  6
CONTINUOUS
 10
15.8060525
 20
22.3966804892
 11
15.7402090075
 21
22.5556736275
  0
LINE
  5
2A7
100
AcDbEntity
  8
0
100
AcDbLine
 62
2
  6
CONTINUOUS
 10
17.3958241982
 20
22.4829636754
 11
17.3662824533
 21
22.6328813768
  0
LINE
  5
2A8
100
AcDbEntity
  8
0
100
AcDbLine
 62
2
  6
CONTINUOUS
 10
16.9416265251
 20
22.5510959878
 11
16.9711150416
 21
22.3558011018
  0
LINE
  5
2A9
100
AcDbEntity
  8
0
100
AcDbLine
 62
2
  6
CONTINUOUS
 10
20.4300015092
 20
23.448072732
 11
20.4391029697
 21
21.7903029091
  0
LINE
  5
2AA
100
AcDbEntity
  8
0
100
AcDbLine
 62
2
  6
CONTINUOUS
 10
19.6584307074
 20
23.4374414201
 11
19.6611706435
 21
22.851480826
  0
LINE
  5
2AB
100
AcDbEntity
  8
0
100
AcDbLine
 62
2
  6
CONTINUOUS
 10
19.120212333
 20
21.794239917
 11
19.120212333
 21
22.4119551397
  0
LINE
  5
2AC
100
AcDbEntity
  8
0
100
AcDbLine
 62
2
  6
CONTINUOUS
 10
19.136074387
 20
22.851480826
 11
19.136074387
 21
23.4624207855
  0
LINE
  5
2AD
100
AcDbEntity
  8
0
100
AcDbLine
 62
2
  6
CONTINUOUS
 10
19.7072110039
 20
22.4119551397
 11
19.7072110039
 21
21.794239917
  0
LINE
  5
2AE
100
AcDbEntity
  8
0
100
AcDbLine
 62
2
  6
CONTINUOUS
 10
20.14672143
 20
21.794239917
 11
20.14672143
 21
23.4374414201
  0
LINE
  5
2AF
100
AcDbEntity
  8
0
100
AcDbLine
 62
2
  6
CONTINUOUS
 10
13.5906345522
 20
22.0662387742
 11
13.7439322551
 21
21.9288563537
  0
LINE
  5
2B0
100
AcDbEntity
  8
0
100
AcDbLine
 62
2
  6
CONTINUOUS
 10
13.4827406482
 20
22.1741326782
 11
13.5906345522
 21
22.0662387742
  0
LINE
  5
2B1
100
AcDbEntity
  8
0
100
AcDbLine
 62
2
  6
CONTINUOUS
 10
13.9755821171
 20
22.2604158644
 11
13.8801968798
 21
22.3558011018
  0
LINE
  5
2B2
100
AcDbEntity
  8
0
100
AcDbLine
 62
2
  6
CONTINUOUS
 10
14.4207043532
 20
23.0780036129
 11
14.5092763593
 21
22.9894316068
  0
LINE
  5
2B3
100
AcDbEntity
  8
0
100
AcDbLine
 62
2
  6
CONTINUOUS
 10
15.4176983195
 20
22.1854703208
 11
15.5517007386
 21
22.0287660024
  0
LINE
  5
2B4
100
AcDbEntity
  8
0
100
AcDbLine
 62
2
  6
CONTINUOUS
 10
14.5092763593
 20
22.9894316068
 11
14.6069238023
 21
22.8736066758
  0
LINE
  5
2B5
100
AcDbEntity
  8
0
100
AcDbLine
 62
2
  6
CONTINUOUS
 10
14.9430609528
 20
23.1733888502
 11
14.8474397413
 21
23.2907317378
  0
LINE
  5
2B6
100
AcDbEntity
  8
0
100
AcDbLine
 62
2
  6
CONTINUOUS
 10
15.8923623004
 20
22.2853799695
 11
15.8060525
 21
22.3966804892
  0
LINE
  5
2B7
100
AcDbEntity
  8
0
100
AcDbLine
 62
2
  6
CONTINUOUS
 10
17.4889206156
 20
22.3262593569
 11
17.3958241982
 21
22.4829636754
  0
LINE
  5
2B8
100
AcDbEntity
  8
0
100
AcDbLine
 62
2
  6
CONTINUOUS
 10
16.9711150416
 20
22.3558011018
 11
17.0574514562
 21
22.1809459095
  0
LINE
  5
2B9
100
AcDbEntity
  8
0
100
AcDbLine
 62
2
  6
CONTINUOUS
 10
20.8841985916
 20
21.7903029091
 11
20.8864874198
 21
23.4437417461
  0
LINE
  5
2BA
100
AcDbEntity
  8
0
100
AcDbLine
 62
2
  6
CONTINUOUS
 10
15.5517007386
 20
22.0287660024
 11
15.7242937252
 21
21.9038390202
  0
LINE
  5
2BB
100
AcDbEntity
  8
0
100
AcDbLine
 62
2
  6
CONTINUOUS
 10
16.4101944886
 20
22.9871427869
 11
16.5032909061
 21
22.8940463695
  0
LINE
  5
2BC
100
AcDbEntity
  8
0
100
AcDbLine
 62
2
  6
CONTINUOUS
 10
17.0574514562
 20
22.1809459095
 11
17.1959516724
 21
22.0083263087
  0
LINE
  5
2BD
100
AcDbEntity
  8
0
100
AcDbLine
 62
2
  6
CONTINUOUS
 10
14.0914070482
 20
22.2036211947
 11
13.9755821171
 21
22.2604158644
  0
LINE
  5
2BE
100
AcDbEntity
  8
0
100
AcDbLine
 62
2
  6
CONTINUOUS
 10
13.0853110307
 20
22.5397583452
 11
12.9195312754
 21
22.62151712
  0
LINE
  5
2BF
100
AcDbEntity
  8
0
100
AcDbLine
 62
2
  6
CONTINUOUS
 10
12.6129358697
 20
22.4829636754
 11
12.6992190559
 21
22.4398486965
  0
LINE
  5
2C0
100
AcDbEntity
  8
0
100
AcDbLine
 62
2
  6
CONTINUOUS
 10
16.0354401564
 20
22.2127232458
 11
15.8923623004
 21
22.2853799695
  0
LINE
  5
2C1
100
AcDbEntity
  8
0
100
AcDbLine
 62
2
  6
CONTINUOUS
 10
13.7439322551
 20
21.9288563537
 11
13.8733836486
 21
21.8629596328
  0
LINE
  5
2C2
100
AcDbEntity
  8
0
100
AcDbLine
 62
2
  6
CONTINUOUS
 10
12.9558596372
 20
23.3687103504
 11
12.7991553188
 21
23.4549935366
  0
LINE
  5
2C3
100
AcDbEntity
  8
0
100
AcDbLine
 62
2
  6
CONTINUOUS
 10
12.5516167886
 20
23.0848168441
 11
12.6449869037
 21
23.0332069594
  0
LINE
  5
2C4
100
AcDbEntity
  8
0
100
AcDbLine
 62
2
  6
CONTINUOUS
 10
14.6705317033
 20
23.398225481
 11
14.5410803098
 21
23.470908819
  0
LINE
  5
2C5
100
AcDbEntity
  8
0
100
AcDbLine
 62
2
  6
CONTINUOUS
 10
14.8474397413
 20
23.2907317378
 11
14.6705317033
 21
23.398225481
  0
LINE
  5
2C6
100
AcDbEntity
  8
0
100
AcDbLine
 62
2
  6
CONTINUOUS
 10
17.1959516724
 20
22.0083263087
 11
17.3413183483
 21
21.9129410713
  0
LINE
  5
2C7
100
AcDbEntity
  8
0
100
AcDbLine
 62
2
  6
CONTINUOUS
 10
17.6479137539
 20
22.2036211947
 11
17.4889206156
 21
22.3262593569
  0
LINE
  5
2C8
100
AcDbEntity
  8
0
100
AcDbLine
 62
2
  6
CONTINUOUS
 10
16.2602767872
 20
23.1029943322
 11
16.4101944886
 21
22.9871427869
  0
LINE
  5
2C9
100
AcDbEntity
  8
0
100
AcDbLine
 62
2
  6
CONTINUOUS
 10
16.8121751316
 20
22.1605062158
 11
16.5146285487
 21
22.3966804892
  0
LINE
  5
2CA
100
AcDbEntity
  8
0
100
AcDbLine
 62
2
  6
CONTINUOUS
 10
16.8303792338
 20
23.1802020815
 11
16.6486575819
 21
23.3618971192
  0
LINE
  5
2CB
100
AcDbEntity
  8
0
100
AcDbLine
 62
2
  6
CONTINUOUS
 10
18.0555898324
 20
22.9996514537
 11
18.1475684541
 21
22.907672832
  0
LINE
  5
2CC
100
AcDbEntity
  8
0
100
AcDbLine
 62
2
  6
CONTINUOUS
 10
18.4723147336
 20
23.166575619
 11
18.3065083641
 21
23.3459818368
  0
LINE
  5
2CD
100
AcDbEntity
  8
0
100
AcDbLine
 62
2
  6
CONTINUOUS
 10
13.8733836486
 20
21.8629596328
 11
14.0232747358
 21
21.8266578851
  0
LINE
  5
2CE
100
AcDbEntity
  8
0
100
AcDbLine
 62
2
  6
CONTINUOUS
 10
15.7242937252
 20
21.9038390202
 11
15.9014377374
 21
21.8379955277
  0
LINE
  5
2CF
100
AcDbEntity
  8
0
100
AcDbLine
 62
2
  6
CONTINUOUS
 10
14.3048794222
 20
23.1256962316
 11
14.4207043532
 21
23.0780036129
  0
LINE
  5
2D0
100
AcDbEntity
  8
0
100
AcDbLine
 62
2
  6
CONTINUOUS
 10
17.3413183483
 20
21.9129410713
 11
17.5025470781
 21
21.844808759
  0
LINE
  5
2D1
100
AcDbEntity
  8
0
100
AcDbLine
 62
2
  6
CONTINUOUS
 10
17.9249674148
 20
23.0802658186
 11
18.0555898324
 21
22.9996514537
  0
LINE
  5
2D2
100
AcDbEntity
  8
0
100
AcDbLine
 62
2
  6
CONTINUOUS
 10
16.6486575819
 20
23.3618971192
 11
16.4805623925
 21
23.4799842559
  0
LINE
  5
2D3
100
AcDbEntity
  8
0
100
AcDbLine
 62
2
  6
CONTINUOUS
 10
18.4791279649
 20
22.1763682697
 11
18.1475684541
 21
22.4239334141
  0
LINE
  5
2D4
100
AcDbEntity
  8
0
100
AcDbLine
 62
2
  6
CONTINUOUS
 10
11.7385534515
 20
21.7903029091
 11
12.8195950125
 21
21.7903029091
  0
LINE
  5
2D5
100
AcDbEntity
  8
0
100
AcDbLine
 62
2
  6
CONTINUOUS
 10
20.4391029697
 20
21.7903029091
 11
20.8841985916
 21
21.7903029091
  0
LINE
  5
2D6
100
AcDbEntity
  8
0
100
AcDbLine
 62
2
  6
CONTINUOUS
 10
18.6648079375
 20
21.794239917
 11
19.120212333
 21
21.794239917
  0
LINE
  5
2D7
100
AcDbEntity
  8
0
100
AcDbLine
 62
2
  6
CONTINUOUS
 10
19.7072110039
 20
21.794239917
 11
20.14672143
 21
21.794239917
  0
LINE
  5
2D8
100
AcDbEntity
  8
0
100
AcDbLine
 62
2
  6
CONTINUOUS
 10
17.657015805
 20
21.8152670142
 11
17.7978048412
 21
21.8152670142
  0
LINE
  5
2D9
100
AcDbEntity
  8
0
100
AcDbLine
 62
2
  6
CONTINUOUS
 10
14.0232747358
 20
21.8266578851
 11
14.4161533277
 21
21.8266578851
  0
LINE
  5
2DA
100
AcDbEntity
  8
0
100
AcDbLine
 62
2
  6
CONTINUOUS
 10
16.1512650875
 20
22.2013856032
 11
16.0354401564
 21
22.2127232458
  0
LINE
  5
2DB
100
AcDbEntity
  8
0
100
AcDbLine
 62
2
  6
CONTINUOUS
 10
14.2367471098
 20
22.1877591407
 11
14.0914070482
 21
22.2036211947
  0
LINE
  5
2DC
100
AcDbEntity
  8
0
100
AcDbLine
 62
2
  6
CONTINUOUS
 10
15.9014377374
 20
21.8379955277
 11
16.1467140619
 21
21.8084537829
  0
LINE
  5
2DD
100
AcDbEntity
  8
0
100
AcDbLine
 62
2
  6
CONTINUOUS
 10
17.78870279
 20
22.1809459095
 11
17.6479137539
 21
22.2036211947
  0
LINE
  5
2DE
100
AcDbEntity
  8
0
100
AcDbLine
 62
2
  6
CONTINUOUS
 10
17.5025470781
 20
21.844808759
 11
17.657015805
 21
21.8152670142
  0
LINE
  5
2DF
100
AcDbEntity
  8
0
100
AcDbLine
 62
2
  6
CONTINUOUS
 10
16.1262743682
 20
23.1325094628
 11
16.2602767872
 21
23.1029943322
  0
LINE
  5
2E0
100
AcDbEntity
  8
0
100
AcDbLine
 62
2
  6
CONTINUOUS
 10
17.7830530111
 20
23.1257077022
 11
17.9249674148
 21
23.0802658186
  0
LINE
  5
2E1
100
AcDbEntity
  8
0
100
AcDbLine
 62
2
  6
CONTINUOUS
 10
14.5410803098
 20
23.470908819
 11
14.3593852721
 21
23.5344901058
  0
LINE
  5
2E2
100
AcDbEntity
  8
0
100
AcDbLine
 62
2
  6
CONTINUOUS
 10
18.1611949166
 20
23.4368426628
 11
18.0203526521
 21
23.4936107184
  0
LINE
  5
2E3
100
AcDbEntity
  8
0
100
AcDbLine
 62
2
  6
CONTINUOUS
 10
18.3065083641
 20
23.3459818368
 11
18.1611949166
 21
23.4368426628
  0
LINE
  5
2E4
100
AcDbEntity
  8
0
100
AcDbLine
 62
2
  6
CONTINUOUS
 10
17.9340694659
 20
21.8402843476
 11
18.1725325592
 21
21.8925013776
  0
LINE
  5
2E5
100
AcDbEntity
  8
0
100
AcDbLine
 62
2
  6
CONTINUOUS
 10
17.9636112107
 20
22.2150120656
 11
17.78870279
 21
22.1809459095
  0
LINE
  5
2E6
100
AcDbEntity
  8
0
100
AcDbLine
 62
2
  6
CONTINUOUS
 10
17.7978048412
 20
21.8152670142
 11
17.9340694659
 21
21.8402843476
  0
LINE
  5
2E7
100
AcDbEntity
  8
0
100
AcDbLine
 62
2
  6
CONTINUOUS
 10
14.3798249658
 20
22.2081988344
 11
14.2367471098
 21
22.1877591407
  0
LINE
  5
2E8
100
AcDbEntity
  8
0
100
AcDbLine
 62
2
  6
CONTINUOUS
 10
16.271641044
 20
22.2172476571
 11
16.1512650875
 21
22.2013856032
  0
LINE
  5
2E9
100
AcDbEntity
  8
0
100
AcDbLine
 62
2
  6
CONTINUOUS
 10
16.1467140619
 20
21.8084537829
 11
16.3761283325
 21
21.8311822965
  0
LINE
  5
2EA
100
AcDbEntity
  8
0
100
AcDbLine
 62
2
  6
CONTINUOUS
 10
12.1837023018
 20
22.4761504442
 11
12.6129358697
 21
22.4829636754
  0
LINE
  5
2EB
100
AcDbEntity
  8
0
100
AcDbLine
 62
2
  6
CONTINUOUS
 10
12.5697676624
 20
22.1423021135
 11
12.1837023018
 21
22.1423021135
  0
LINE
  5
2EC
100
AcDbEntity
  8
0
100
AcDbLine
 62
2
  6
CONTINUOUS
 10
19.120212333
 20
22.4119551397
 11
19.7072110039
 21
22.4119551397
  0
LINE
  5
2ED
100
AcDbEntity
  8
0
100
AcDbLine
 62
2
  6
CONTINUOUS
 10
12.5584300198
 20
22.7918479009
 11
12.1882267131
 21
22.7918479009
  0
LINE
  5
2EE
100
AcDbEntity
  8
0
100
AcDbLine
 62
2
  6
CONTINUOUS
 10
19.6611706435
 20
22.851480826
 11
19.136074387
 21
22.851480826
  0
LINE
  5
2EF
100
AcDbEntity
  8
0
100
AcDbLine
 62
2
  6
CONTINUOUS
 10
20.14672143
 20
23.4374414201
 11
19.6584307074
 21
23.4374414201
  0
LINE
  5
2F0
100
AcDbEntity
  8
0
100
AcDbLine
 62
2
  6
CONTINUOUS
 10
19.136074387
 20
23.4624207855
 11
18.6738142493
 21
23.4624207855
  0
LINE
  5
2F1
100
AcDbEntity
  8
0
100
AcDbLine
 62
2
  6
CONTINUOUS
 10
20.8864874198
 20
23.4437417461
 11
20.4300015092
 21
23.448072732
  0
LINE
  5
2F2
100
AcDbEntity
  8
0
100
AcDbLine
 62
2
  6
CONTINUOUS
 10
12.1837023018
 20
23.0916300754
 11
12.5516167886
 21
23.0848168441
  0
LINE
  5
2F3
100
AcDbEntity
  8
0
100
AcDbLine
 62
2
  6
CONTINUOUS
 10
18.0203526521
 20
23.4936107184
 11
17.8500218712
 21
23.5208636433
  0
LINE
  5
2F4
100
AcDbEntity
  8
0
100
AcDbLine
 62
2
  6
CONTINUOUS
 10
16.4805623925
 20
23.4799842559
 11
16.2466503248
 21
23.523125849
  0
LINE
  5
2F5
100
AcDbEntity
  8
0
100
AcDbLine
 62
2
  6
CONTINUOUS
 10
15.9900097434
 20
23.0938922811
 11
16.1262743682
 21
23.1325094628
  0
LINE
  5
2F6
100
AcDbEntity
  8
0
100
AcDbLine
 62
2
  6
CONTINUOUS
 10
14.4161533277
 20
21.8266578851
 11
14.6341767273
 21
21.8856881464
  0
LINE
  5
2F7
100
AcDbEntity
  8
0
100
AcDbLine
 62
2
  6
CONTINUOUS
 10
17.596652509
 20
23.0804976372
 11
17.7830530111
 21
23.1257077022
  0
LINE
  5
2F8
100
AcDbEntity
  8
0
100
AcDbLine
 62
2
  6
CONTINUOUS
 10
16.0286269252
 20
23.523125849
 11
15.8560339386
 21
23.4867974871
  0
LINE
  5
2F9
100
AcDbEntity
  8
0
100
AcDbLine
 62
2
  6
CONTINUOUS
 10
17.6978951925
 20
23.5208636433
 11
17.557052928
 21
23.5004239496
  0
LINE
  5
2FA
100
AcDbEntity
  8
0
100
AcDbLine
 62
2
  6
CONTINUOUS
 10
14.2140452104
 20
23.5344901058
 11
13.9165252417
 21
23.5117882064
  0
LINE
  5
2FB
100
AcDbEntity
  8
0
100
AcDbLine
 62
2
  6
CONTINUOUS
 10
14.1267438063
 20
23.1167711831
 11
14.3048794222
 21
23.1256962316
  0
LINE
  5
2FC
100
AcDbEntity
  8
0
100
AcDbLine
 62
2
  6
CONTINUOUS
 10
12.7991553188
 20
23.4549935366
 11
11.7385534515
 21
23.443655894
  0
LINE
  5
2FD
100
AcDbEntity
  8
0
100
AcDbLine
 62
2
  6
CONTINUOUS
 10
17.8500218712
 20
23.5208636433
 11
17.6978951925
 21
23.5208636433
  0
LINE
  5
2FE
100
AcDbEntity
  8
0
100
AcDbLine
 62
2
  6
CONTINUOUS
 10
16.2466503248
 20
23.523125849
 11
16.0286269252
 21
23.523125849
  0
LINE
  5
2FF
100
AcDbEntity
  8
0
100
AcDbLine
 62
2
  6
CONTINUOUS
 10
14.3593852721
 20
23.5344901058
 11
14.2140452104
 21
23.5344901058
  0
LINE
  5
300
100
AcDbEntity
  8
03___PRT_ALL_CURVES
100
AcDbLine
 62
2
  6
CONTINUOUS
 10
3.0321320931
 20
27.0853673715
 11
40.4947305183
 21
27.0853673715
  0
LINE
  5
301
100
AcDbEntity
  8
03___PRT_ALL_CURVES
100
AcDbLine
 62
2
  6
CONTINUOUS
 10
3.0321320931
 20
27.1066665841
 11
40.4947305183
 21
27.1066665841
  0
LINE
  5
302
100
AcDbEntity
  8
03___PRT_ALL_CURVES
100
AcDbLine
 62
2
  6
CONTINUOUS
 10
40.8884313057
 20
26.6916665841
 11
40.8884313057
 21
8.4790681589
  0
LINE
  5
303
100
AcDbEntity
  8
03___PRT_ALL_CURVES
100
AcDbLine
 62
2
  6
CONTINUOUS
 10
40.9097305183
 20
26.6916665841
 11
40.9097305183
 21
8.4790681589
  0
LINE
  5
304
100
AcDbEntity
  8
0
100
AcDbLine
 62
7
  6
CONTINUOUS
 10
11.0207354856
 20
11.7458321352
 11
11.0207354856
 21
11.9124988018
  0
LINE
  5
305
100
AcDbEntity
  8
0
100
AcDbLine
 62
7
  6
CONTINUOUS
 10
12.051185684
 20
11.9002908816
 11
12.0526902236
 21
11.8787749636
  0
LINE
  5
306
100
AcDbEntity
  8
0
100
AcDbLine
 62
7
  6
CONTINUOUS
 10
12.0207354856
 20
11.9124988018
 11
12.0207354856
 21
11.7458321352
  0
LINE
  5
307
100
AcDbEntity
  8
DEFAULT_3
100
AcDbLine
 62
7
  6
PHANTOM
 10
12.0666672441
 20
11.8665670433
 11
12.0666672441
 21
11.9124988018
  0
LINE
  5
308
100
AcDbEntity
  8
0
100
AcDbLine
 62
7
  6
CONTINUOUS
 10
11.959624367
 20
11.9410330733
 11
11.9551186877
 21
11.8895329226
  0
LINE
  5
309
100
AcDbEntity
  8
0
100
AcDbLine
 62
7
  6
CONTINUOUS
 10
11.9748789207
 20
11.8895329226
 11
11.9772788517
 21
11.9018794973
  0
LINE
  5
30A
100
AcDbEntity
  8
0
100
AcDbLine
 62
7
  6
CONTINUOUS
 10
12.3092564566
 20
11.9468118545
 11
12.3094013608
 21
11.9440469167
  0
LINE
  5
30B
100
AcDbEntity
  8
DEFAULT_3
100
AcDbLine
 62
7
  6
PHANTOM
 10
12.124440599
 20
11.9124988018
 11
12.124440599
 21
11.9002908816
  0
LINE
  5
30C
100
AcDbEntity
  8
DEFAULT_3
100
AcDbLine
 62
7
  6
PHANTOM
 10
12.1388457218
 20
11.8943045442
 11
12.1388457218
 21
11.8665670433
  0
LINE
  5
30D
100
AcDbEntity
  8
DEFAULT_3
100
AcDbLine
 62
7
  6
PHANTOM
 10
12.3127300607
 20
11.9467340816
 11
12.3127301915
 21
11.9440059527
  0
LINE
  5
30E
100
AcDbEntity
  8
DEFAULT_3
100
AcDbLine
 62
7
  6
PHANTOM
 10
12.365879667
 20
11.9458063518
 11
12.3658797978
 21
11.9430782228
  0
LINE
  5
30F
100
AcDbEntity
  8
DEFAULT_3
100
AcDbLine
 62
7
  6
PHANTOM
 10
12.3127300607
 20
11.9467340816
 11
12.3127463391
 21
11.9476666719
  0
LINE
  5
310
100
AcDbEntity
  8
DEFAULT_3
100
AcDbLine
 62
7
  6
PHANTOM
 10
12.3658959454
 20
11.9467389421
 11
12.365879667
 21
11.9458063518
  0
LINE
  5
311
100
AcDbEntity
  8
0
100
AcDbLine
 62
7
  6
CONTINUOUS
 10
12.3693514729
 20
11.9457285789
 11
12.3692104268
 21
11.9430372588
  0
LINE
  5
312
100
AcDbEntity
  8
0
100
AcDbLine
 62
7
  6
CONTINUOUS
 10
12.1528227423
 20
11.8787749636
 11
12.1533354841
 21
11.8861075134
  0
LINE
  5
313
100
AcDbEntity
  8
0
100
AcDbLine
 62
7
  6
CONTINUOUS
 10
12.8067402374
 20
11.8865425418
 11
12.8072833994
 21
11.8787749636
  0
LINE
  5
314
100
AcDbEntity
  8
DEFAULT_3
100
AcDbLine
 62
7
  6
PHANTOM
 10
12.7451425398
 20
11.9525576652
 11
12.7451425398
 21
11.9649922402
  0
LINE
  5
315
100
AcDbEntity
  8
DEFAULT_3
100
AcDbLine
 62
7
  6
PHANTOM
 10
12.82126042
 20
11.8665670433
 11
12.82126042
 21
11.8862890911
  0
LINE
  5
316
100
AcDbEntity
  8
DEFAULT_3
100
AcDbLine
 62
7
  6
PHANTOM
 10
13.0574808924
 20
11.8821658474
 11
13.0574808924
 21
11.8665670433
  0
LINE
  5
317
100
AcDbEntity
  8
0
100
AcDbLine
 62
7
  6
CONTINUOUS
 10
13.0714579129
 20
11.8787749636
 11
13.0716776983
 21
11.8819180412
  0
LINE
  5
318
100
AcDbEntity
  8
DEFAULT_3
100
AcDbLine
 62
7
  6
PHANTOM
 10
14.169891622
 20
11.9152500804
 11
14.1703496905
 21
11.9401191549
  0
LINE
  5
319
100
AcDbEntity
  8
0
100
AcDbLine
 62
7
  6
CONTINUOUS
 10
15.9710729906
 20
10.5907390829
 11
16.1645077152
 21
10.6213761335
  0
LINE
  5
31A
100
AcDbEntity
  8
0
100
AcDbLine
 62
7
  6
CONTINUOUS
 10
15.8979576889
 20
10.6263083599
 11
15.9370054351
 21
10.6324929154
  0
LINE
  5
31B
100
AcDbEntity
  8
0
100
AcDbLine
 62
7
  6
CONTINUOUS
 10
15.9510594954
 20
10.6430024775
 11
16.0797219705
 21
10.6633806117
  0
LINE
  5
31C
100
AcDbEntity
  8
0
100
AcDbLine
 62
7
  6
CONTINUOUS
 10
16.1820598322
 20
10.6229580585
 11
18.0062822528
 21
10.6643554564
  0
LINE
  5
31D
100
AcDbEntity
  8
0
100
AcDbLine
 62
7
  6
CONTINUOUS
 10
16.0945630533
 20
10.6734794319
 11
18.011720718
 21
10.7169858255
  0
LINE
  5
31E
100
AcDbEntity
  8
DEFAULT_3
100
AcDbLine
 62
7
  6
PHANTOM
 10
18.0111541188
 20
10.7812660083
 11
17.8984462287
 21
10.7790057788
  0
LINE
  5
31F
100
AcDbEntity
  8
0
100
AcDbLine
 62
7
  6
CONTINUOUS
 10
15.4798908256
 20
10.5734109958
 11
15.9237848699
 21
10.5734109958
  0
LINE
  5
320
100
AcDbEntity
  8
0
100
AcDbLine
 62
7
  6
CONTINUOUS
 10
15.510850371
 20
10.6259044341
 11
15.8928253246
 21
10.6259044341
  0
LINE
  5
321
100
AcDbEntity
  8
DEFAULT_3
100
AcDbLine
 62
7
  6
PHANTOM
 10
15.9082168215
 20
10.6324929154
 11
15.4666702605
 21
10.6324929154
  0
LINE
  5
322
100
AcDbEntity
  8
DEFAULT_3
100
AcDbLine
 62
7
  6
PHANTOM
 10
15.4648635928
 20
10.6334134585
 11
15.9388121028
 21
10.6334134585
  0
LINE
  5
323
100
AcDbEntity
  8
DEFAULT_3
100
AcDbLine
 62
7
  6
PHANTOM
 10
15.9456394923
 20
10.640240848
 11
15.4580362033
 21
10.640240848
  0
LINE
  5
324
100
AcDbEntity
  8
DEFAULT_3
100
AcDbLine
 62
7
  6
PHANTOM
 10
15.4526162002
 20
10.6430024775
 11
15.9510594954
 21
10.6430024775
  0
LINE
  5
325
100
AcDbEntity
  8
DEFAULT_3
100
AcDbLine
 62
7
  6
PHANTOM
 10
16.0334623643
 20
10.6633806117
 11
15.3239537251
 21
10.6633806117
  0
LINE
  5
326
100
AcDbEntity
  8
DEFAULT_3
100
AcDbLine
 62
7
  6
PHANTOM
 10
15.3221470574
 20
10.6643011548
 11
16.0815286382
 21
10.6643011548
  0
LINE
  5
327
100
AcDbEntity
  8
DEFAULT_3
100
AcDbLine
 62
7
  6
PHANTOM
 10
15.3158490542
 20
10.670599158
 11
16.0878266414
 21
10.670599158
  0
LINE
  5
328
100
AcDbEntity
  8
DEFAULT_3
100
AcDbLine
 62
7
  6
PHANTOM
 10
15.3091126423
 20
10.6734794319
 11
16.0945630533
 21
10.6734794319
  0
LINE
  5
329
100
AcDbEntity
  8
0
100
AcDbLine
 62
7
  6
CONTINUOUS
 10
15.3091126423
 20
10.6734794319
 11
15.2870002342
 21
10.6739812327
  0
LINE
  5
32A
100
AcDbEntity
  8
0
100
AcDbLine
 62
7
  6
CONTINUOUS
 10
15.4326027049
 20
10.5907390829
 11
15.277558215
 21
10.6152957176
  0
LINE
  5
32B
100
AcDbEntity
  8
0
100
AcDbLine
 62
7
  6
CONTINUOUS
 10
15.5057180066
 20
10.6263083599
 11
15.4666702605
 21
10.6324929154
  0
LINE
  5
32C
100
AcDbEntity
  8
0
100
AcDbLine
 62
7
  6
CONTINUOUS
 10
15.4526162002
 20
10.6430024775
 11
15.3239537251
 21
10.6633806117
  0
LINE
  5
32D
100
AcDbEntity
  8
0
100
AcDbLine
 62
7
  6
CONTINUOUS
 10
15.3221470574
 20
10.6643011548
 11
15.3158490542
 21
10.670599158
  0
LINE
  5
32E
100
AcDbEntity
  8
0
100
AcDbLine
 62
7
  6
CONTINUOUS
 10
15.4648635928
 20
10.6334134585
 11
15.4580362033
 21
10.640240848
  0
LINE
  5
32F
100
AcDbEntity
  8
DEFAULT_3
100
AcDbLine
 62
7
  6
PHANTOM
 10
14.9997381102
 20
11.9052368549
 11
14.9997381102
 21
11.9256421262
  0
LINE
  5
330
100
AcDbEntity
  8
DEFAULT_3
100
AcDbLine
 62
7
  6
PHANTOM
 10
15.0486954524
 20
11.9649922402
 11
15.0486954524
 21
11.9401191681
  0
LINE
  5
331
100
AcDbEntity
  8
DEFAULT_3
100
AcDbLine
 62
7
  6
PHANTOM
 10
15.1274781626
 20
11.9419441914
 11
15.1274781626
 21
11.9649922402
  0
LINE
  5
332
100
AcDbEntity
  8
DEFAULT_3
100
AcDbLine
 62
7
  6
PHANTOM
 10
14.9995090807
 20
11.8928023175
 11
14.9997381149
 21
11.9052368548
  0
LINE
  5
333
100
AcDbEntity
  8
DEFAULT_3
100
AcDbLine
 62
7
  6
PHANTOM
 10
15.0530928124
 20
11.9043055451
 11
15.0528637782
 21
11.8918710078
  0
LINE
  5
334
100
AcDbEntity
  8
DEFAULT_3
100
AcDbLine
 62
7
  6
PHANTOM
 10
15.286020785
 20
10.7509510517
 11
15.1274781626
 21
11.9419441914
  0
LINE
  5
335
100
AcDbEntity
  8
0
100
AcDbLine
 62
7
  6
CONTINUOUS
 10
15.0466001946
 20
11.7942842575
 11
15.1788053148
 21
10.7175599593
  0
LINE
  5
336
100
AcDbEntity
  8
DEFAULT_3
100
AcDbLine
 62
7
  6
PHANTOM
 10
15.0530928124
 20
11.9043055451
 11
15.0486954524
 21
11.9401191681
  0
LINE
  5
337
100
AcDbEntity
  8
0
100
AcDbLine
 62
7
  6
CONTINUOUS
 10
15.0747465325
 20
11.9419441914
 11
15.2233600157
 21
10.7315844999
  0
LINE
  5
338
100
AcDbEntity
  8
0
100
AcDbLine
 62
7
  6
CONTINUOUS
 10
19.3855648819
 20
11.7458321352
 11
18.3855648819
 21
11.7458321352
  0
LINE
  5
339
100
AcDbEntity
  8
0
100
AcDbLine
 62
7
  6
CONTINUOUS
 10
12.0207354856
 20
11.7458321352
 11
11.0207354856
 21
11.7458321352
  0
LINE
  5
33A
100
AcDbEntity
  8
0
100
AcDbLine
 62
7
  6
CONTINUOUS
 10
12.0657816153
 20
11.8665670433
 11
12.1397313506
 21
11.8665670433
  0
LINE
  5
33B
100
AcDbEntity
  8
0
100
AcDbLine
 62
7
  6
CONTINUOUS
 10
12.8203747912
 20
11.8665670433
 11
13.0583665212
 21
11.8665670433
  0
LINE
  5
33C
100
AcDbEntity
  8
0
100
AcDbLine
 62
7
  6
CONTINUOUS
 10
18.2673250584
 20
11.8665670433
 11
18.3405187522
 21
11.8665670433
  0
LINE
  5
33D
100
AcDbEntity
  8
DEFAULT_3
100
AcDbLine
 62
7
  6
PHANTOM
 10
18.3536101439
 20
11.8787749636
 11
18.2703229466
 21
11.8787749636
  0
LINE
  5
33E
100
AcDbEntity
  8
DEFAULT_3
100
AcDbLine
 62
7
  6
PHANTOM
 10
13.0714579129
 20
11.8787749636
 11
12.8072833994
 21
11.8787749636
  0
LINE
  5
33F
100
AcDbEntity
  8
DEFAULT_3
100
AcDbLine
 62
7
  6
PHANTOM
 10
12.1528227423
 20
11.8787749636
 11
12.0526902236
 21
11.8787749636
  0
LINE
  5
340
100
AcDbEntity
  8
0
100
AcDbLine
 62
7
  6
CONTINUOUS
 10
18.3853528281
 20
11.8895329226
 11
18.3540556102
 21
11.8895329226
  0
LINE
  5
341
100
AcDbEntity
  8
0
100
AcDbLine
 62
7
  6
CONTINUOUS
 10
12.6354214371
 20
11.8895329226
 11
12.1533354841
 21
11.8895329226
  0
LINE
  5
342
100
AcDbEntity
  8
0
100
AcDbLine
 62
7
  6
CONTINUOUS
 10
12.0519379538
 20
11.8895329226
 11
12.0207354856
 21
11.8895329226
  0
LINE
  5
343
100
AcDbEntity
  8
0
100
AcDbLine
 62
7
  6
CONTINUOUS
 10
11.9551186877
 20
11.8895329226
 11
11.9748789207
 21
11.8895329226
  0
LINE
  5
344
100
AcDbEntity
  8
0
100
AcDbLine
 62
7
  6
CONTINUOUS
 10
18.4314214468
 20
11.8895329226
 11
18.4511816798
 21
11.8895329226
  0
LINE
  5
345
100
AcDbEntity
  8
DEFAULT_3
100
AcDbLine
 62
7
  6
PHANTOM
 10
12.051185684
 20
11.9002908816
 11
12.1244405971
 21
11.9002908816
  0
LINE
  5
346
100
AcDbEntity
  8
DEFAULT_3
100
AcDbLine
 62
7
  6
PHANTOM
 10
18.284575332
 20
11.9002908816
 11
18.3551146834
 21
11.9002908816
  0
LINE
  5
347
100
AcDbEntity
  8
DEFAULT_3
100
AcDbLine
 62
7
  6
PHANTOM
 10
12.0207354856
 20
11.9018794973
 11
12.051185684
 21
11.9018794973
  0
LINE
  5
348
100
AcDbEntity
  8
0
100
AcDbLine
 62
7
  6
CONTINUOUS
 10
11.0207354856
 20
11.9124988018
 11
12.124440599
 21
11.9124988018
  0
LINE
  5
349
100
AcDbEntity
  8
0
100
AcDbLine
 62
7
  6
CONTINUOUS
 10
18.2845753369
 20
11.9124988018
 11
19.3855648819
 21
11.9124988018
  0
LINE
  5
34A
100
AcDbEntity
  8
DEFAULT_3
100
AcDbLine
 62
7
  6
PHANTOM
 10
14.1703496904
 20
11.9401191615
 11
15.0486954524
 21
11.9401191681
  0
LINE
  5
34B
100
AcDbEntity
  8
DEFAULT_3
100
AcDbLine
 62
7
  6
PHANTOM
 10
15.1274781626
 20
11.9419441914
 11
18.1659554706
 21
11.9419441914
  0
LINE
  5
34C
100
AcDbEntity
  8
DEFAULT_3
100
AcDbLine
 62
7
  6
PHANTOM
 10
12.7451425327
 20
11.9525574079
 11
12.2372365893
 21
11.9569892046
  0
LINE
  5
34D
100
AcDbEntity
  8
0
100
AcDbLine
 62
7
  6
CONTINUOUS
 10
14.9954141712
 20
11.8403723599
 11
14.9245529231
 21
11.8416092476
  0
LINE
  5
34E
100
AcDbEntity
  8
0
100
AcDbLine
 62
7
  6
CONTINUOUS
 10
13.5780684215
 20
11.8730789583
 11
12.177109408
 21
11.8975327888
  0
LINE
  5
34F
100
AcDbEntity
  8
0
100
AcDbLine
 62
7
  6
CONTINUOUS
 10
15.0581425018
 20
11.8917788674
 11
14.9734913911
 21
11.893256458
  0
LINE
  5
350
100
AcDbEntity
  8
0
100
AcDbLine
 62
7
  6
CONTINUOUS
 10
12.3682103461
 20
11.9421046685
 11
12.3103670864
 21
11.9431143264
  0
LINE
  5
351
100
AcDbEntity
  8
0
100
AcDbLine
 62
7
  6
CONTINUOUS
 10
14.9686168337
 20
11.8973249349
 11
14.9760722143
 21
11.8971948149
  0
LINE
  5
352
100
AcDbEntity
  8
DEFAULT_3
100
AcDbLine
 62
7
  6
PHANTOM
 10
12.3658797978
 20
11.9430782228
 11
12.3127301915
 21
11.9440059527
  0
LINE
  5
353
100
AcDbEntity
  8
DEFAULT_3
100
AcDbLine
 62
7
  6
PHANTOM
 10
12.3127300607
 20
11.9467340816
 11
12.365879667
 21
11.9458063518
  0
LINE
  5
354
100
AcDbEntity
  8
0
100
AcDbLine
 62
7
  6
CONTINUOUS
 10
12.1976245771
 20
11.9496761297
 11
14.9667553932
 21
11.9013407715
  0
LINE
  5
355
100
AcDbEntity
  8
DEFAULT_3
100
AcDbLine
 62
7
  6
PHANTOM
 10
14.9997381102
 20
11.9052368549
 11
15.0530928124
 21
11.9043055451
  0
LINE
  5
356
100
AcDbEntity
  8
DEFAULT_3
100
AcDbLine
 62
7
  6
PHANTOM
 10
14.1703496904
 20
11.9401191615
 11
14.9997381102
 21
11.9256421262
  0
LINE
  5
357
100
AcDbEntity
  8
DEFAULT_3
100
AcDbLine
 62
7
  6
PHANTOM
 10
14.9686168661
 20
11.8973249022
 11
14.9602706763
 21
11.8975086225
  0
LINE
  5
358
100
AcDbEntity
  8
0
100
AcDbLine
 62
7
  6
CONTINUOUS
 10
13.5780684215
 20
11.8730789583
 11
14.9170899552
 21
11.8420556762
  0
LINE
  5
359
100
AcDbEntity
  8
0
100
AcDbLine
 62
7
  6
CONTINUOUS
 10
13.5791344357
 20
11.9255617855
 11
14.9734913911
 21
11.893256458
  0
LINE
  5
35A
100
AcDbEntity
  8
0
100
AcDbLine
 62
7
  6
CONTINUOUS
 10
11.9857712095
 20
11.9649922402
 11
18.420529158
 21
11.9649922402
  0
LINE
  5
35B
100
AcDbEntity
  8
0
100
AcDbLine
 62
7
  6
CONTINUOUS
 10
15.9388121028
 20
10.6334134585
 11
15.9456394923
 21
10.640240848
  0
LINE
  5
35C
100
AcDbEntity
  8
0
100
AcDbLine
 62
7
  6
CONTINUOUS
 10
16.0815286382
 20
10.6643011548
 11
16.0878266414
 21
10.670599158
  0
LINE
  5
35D
100
AcDbEntity
  8
DEFAULT_3
100
AcDbLine
 62
7
  6
PHANTOM
 10
18.0111541188
 20
10.7812660083
 11
18.1659554706
 21
11.9419441914
  0
LINE
  5
35E
100
AcDbEntity
  8
DEFAULT_3
100
AcDbLine
 62
7
  6
PHANTOM
 10
18.1659554721
 20
11.9649922402
 11
18.1659554721
 21
11.9419441914
  0
LINE
  5
35F
100
AcDbEntity
  8
DEFAULT_3
100
AcDbLine
 62
7
  6
PHANTOM
 10
18.2845753369
 20
11.9002908816
 11
18.2845753369
 21
11.9124988018
  0
LINE
  5
360
100
AcDbEntity
  8
DEFAULT_3
100
AcDbLine
 62
7
  6
PHANTOM
 10
18.3396331234
 20
11.9124988018
 11
18.3396331234
 21
11.8665670433
  0
LINE
  5
361
100
AcDbEntity
  8
0
100
AcDbLine
 62
7
  6
CONTINUOUS
 10
18.3536101439
 20
11.8787749636
 11
18.3551146834
 21
11.9002908816
  0
LINE
  5
362
100
AcDbEntity
  8
0
100
AcDbLine
 62
7
  6
CONTINUOUS
 10
18.2186929426
 20
11.9419441914
 11
18.0753597498
 21
10.7745890146
  0
LINE
  5
363
100
AcDbEntity
  8
0
100
AcDbLine
 62
7
  6
CONTINUOUS
 10
18.2585242568
 20
11.8894507531
 11
18.1208325129
 21
10.76804149
  0
LINE
  5
364
100
AcDbEntity
  8
DEFAULT_3
100
AcDbLine
 62
7
  6
PHANTOM
 10
18.2703229466
 20
11.8787749636
 11
18.2715497971
 21
11.8887668585
  0
LINE
  5
365
100
AcDbEntity
  8
0
100
AcDbLine
 62
7
  6
CONTINUOUS
 10
18.1201186591
 20
10.7632038885
 11
18.1208325129
 21
10.76804149
  0
LINE
  5
366
100
AcDbEntity
  8
0
100
AcDbLine
 62
7
  6
CONTINUOUS
 10
18.4466760004
 20
11.9410330733
 11
18.4511816798
 21
11.8895329226
  0
LINE
  5
367
100
AcDbEntity
  8
0
100
AcDbLine
 62
7
  6
CONTINUOUS
 10
18.3855648819
 20
11.7458321352
 11
18.3855648819
 21
11.9124988018
  0
LINE
  5
368
100
AcDbEntity
  8
0
100
AcDbLine
 62
7
  6
CONTINUOUS
 10
18.4314214468
 20
11.8895329226
 11
18.4290215158
 21
11.9018794973
  0
LINE
  5
369
100
AcDbEntity
  8
0
100
AcDbLine
 62
7
  6
CONTINUOUS
 10
19.3855648819
 20
11.9124988018
 11
19.3855648819
 21
11.7458321352
  0
ARC
  5
36A
100
AcDbEntity
  8
03___PRT_ALL_CURVES
100
AcDbCircle
 62
2
  6
CONTINUOUS
 10
3.0321320931
 20
26.6916665841
 40
0.415
100
AcDbArc
 50
90.0
 51
180.0
  0
ARC
  5
36B
100
AcDbEntity
  8
03___PRT_ALL_CURVES
100
AcDbCircle
 62
2
  6
CONTINUOUS
 10
3.0321320931
 20
8.4790681589
 40
0.415
100
AcDbArc
 50
180.0
 51
270.0
  0
ARC
  5
36C
100
AcDbEntity
  8
03___PRT_ALL_CURVES
100
AcDbCircle
 62
2
  6
CONTINUOUS
 10
40.4947305183
 20
8.4790681589
 40
0.415
100
AcDbArc
 50
270.0
 51
360.0
  0
ARC
  5
36D
100
AcDbEntity
  8
03___PRT_ALL_CURVES
100
AcDbCircle
 62
2
  6
CONTINUOUS
 10
40.4947305183
 20
26.6916665841
 40
0.415
100
AcDbArc
 50
0.0
 51
90.0
  0
ARC
  5
36E
100
AcDbEntity
  8
03___PRT_ALL_CURVES
100
AcDbCircle
 62
2
  6
CONTINUOUS
 10
3.0321320931
 20
26.6916665841
 40
0.3937007874
100
AcDbArc
 50
90.0
 51
180.0
  0
ARC
  5
36F
100
AcDbEntity
  8
03___PRT_ALL_CURVES
100
AcDbCircle
 62
2
  6
CONTINUOUS
 10
3.0321320931
 20
8.4790681589
 40
0.3937007874
100
AcDbArc
 50
180.0
 51
270.0
  0
ARC
  5
370
100
AcDbEntity
  8
03___PRT_ALL_CURVES
100
AcDbCircle
 62
2
  6
CONTINUOUS
 10
40.4947305183
 20
8.4790681589
 40
0.3937007874
100
AcDbArc
 50
270.0
 51
360.0
  0
ARC
  5
371
100
AcDbEntity
  8
03___PRT_ALL_CURVES
100
AcDbCircle
 62
2
  6
CONTINUOUS
 10
40.4947305183
 20
26.6916665841
 40
0.3937007874
100
AcDbArc
 50
0.0
 51
90.0
  0
ARC
  5
372
100
AcDbEntity
  8
0
100
AcDbCircle
 62
2
  6
CONTINUOUS
 10
3.0321320931
 20
26.6916665841
 40
0.3937007874
100
AcDbArc
 50
107.8154241585
 51
152.9568752157
  0
ARC
  5
373
100
AcDbEntity
  8
0
100
AcDbCircle
 62
7
  6
CONTINUOUS
 10
14.9944980344
 20
11.7878869166
 40
0.0524934383
100
AcDbArc
 50
7.0
 51
89.0
  0
ARC
  5
374
100
AcDbEntity
  8
0
100
AcDbCircle
 62
7
  6
CONTINUOUS
 10
15.0576844334
 20
11.8655361457
 40
0.0262467192
100
AcDbArc
 50
7.0
 51
89.0
  0
ARC
  5
375
100
AcDbEntity
  8
0
100
AcDbCircle
 62
7
  6
CONTINUOUS
 10
14.916482018
 20
11.8158159986
 40
0.0262467192
100
AcDbArc
 50
84.2421965568
 51
88.6727732601
  0
ARC
  5
376
100
AcDbEntity
  8
DEFAULT_3
100
AcDbCircle
 62
7
  6
PHANTOM
 10
15.0538459275
 20
11.8814022423
 40
0.0228778706
100
AcDbArc
 50
62.4836791543
 51
66.0729312239
  0
ARC
  5
377
100
AcDbEntity
  8
0
100
AcDbCircle
 62
7
  6
CONTINUOUS
 10
13.0583665212
 20
11.8796904029
 40
0.0131233596
100
AcDbArc
 50
270.0000000079
 51
355.9999999992
  0
ARC
  5
378
100
AcDbEntity
  8
0
100
AcDbCircle
 62
7
  6
CONTINUOUS
 10
12.8203747912
 20
11.8796904029
 40
0.0131233596
100
AcDbArc
 50
184.0000000008
 51
269.9999999921
  0
ARC
  5
379
100
AcDbEntity
  8
0
100
AcDbCircle
 62
7
  6
CONTINUOUS
 10
12.0657816153
 20
11.8796904029
 40
0.0131233596
100
AcDbArc
 50
183.9999999995
 51
269.9999999921
  0
ARC
  5
37A
100
AcDbEntity
  8
0
100
AcDbCircle
 62
7
  6
CONTINUOUS
 10
12.1397313506
 20
11.8796904029
 40
0.0131233596
100
AcDbArc
 50
270.0000000079
 51
355.9999999992
  0
ARC
  5
37B
100
AcDbEntity
  8
DEFAULT_3
100
AcDbCircle
 62
7
  6
PHANTOM
 10
13.0333333311
 20
13.2603712637
 40
2.3766046423
100
AcDbArc
 50
325.2425715696
 51
325.8326642441
  0
ARC
  5
37C
100
AcDbEntity
  8
DEFAULT_3
100
AcDbCircle
 62
7
  6
PHANTOM
 10
14.1202104907
 20
13.2722974131
 40
1.6084306934
100
AcDbArc
 50
302.2748852545
 51
303.1493600566
  0
ARC
  5
37D
100
AcDbEntity
  8
DEFAULT_3
100
AcDbCircle
 62
7
  6
PHANTOM
 10
15.1442328391
 20
12.9683769677
 40
1.0679674617
100
AcDbArc
 50
265.1044405579
 51
265.2954688309
  0
ARC
  5
37E
100
AcDbEntity
  8
DEFAULT_3
100
AcDbCircle
 62
7
  6
PHANTOM
 10
15.0066155832
 20
12.7576009886
 40
0.852392006
100
AcDbArc
 50
268.6066015518
 51
269.5377074023
  0
ARC
  5
37F
100
AcDbEntity
  8
DEFAULT_3
100
AcDbCircle
 62
7
  6
PHANTOM
 10
12.1785079569
 20
11.9772216604
 40
0.091914873
100
AcDbArc
 50
239.0201194589
 51
244.4365352713
  0
ARC
  5
380
100
AcDbEntity
  8
0
100
AcDbCircle
 62
7
  6
CONTINUOUS
 10
12.1784836132
 20
11.9762609538
 40
0.0787401575
100
AcDbArc
 50
239.0186049163
 51
269.0
  0
ARC
  5
381
100
AcDbEntity
  8
0
100
AcDbCircle
 62
7
  6
CONTINUOUS
 10
14.9256980941
 20
11.9072160517
 40
0.0656167979
100
AcDbArc
 50
264.2421965568
 51
269.0
  0
ARC
  5
382
100
AcDbEntity
  8
0
100
AcDbCircle
 62
7
  6
CONTINUOUS
 10
11.9857712095
 20
11.938745521
 40
0.0262467192
100
AcDbArc
 50
90.0
 51
175.0
  0
ARC
  5
383
100
AcDbEntity
  8
0
100
AcDbCircle
 62
7
  6
CONTINUOUS
 10
15.0486954524
 20
11.938745521
 40
0.0262467192
100
AcDbArc
 50
7.0000000001
 51
90.0
  0
ARC
  5
384
100
AcDbEntity
  8
0
100
AcDbCircle
 62
7
  6
CONTINUOUS
 10
12.1980826455
 20
11.9759188514
 40
0.0262467192
100
AcDbArc
 50
225.0847506526
 51
269.0
  0
ARC
  5
385
100
AcDbEntity
  8
0
100
AcDbCircle
 62
7
  6
CONTINUOUS
 10
12.1610191247
 20
11.938745521
 40
0.0262467192
100
AcDbArc
 50
45.0847506526
 51
90.0
  0
ARC
  5
386
100
AcDbEntity
  8
0
100
AcDbCircle
 62
7
  6
CONTINUOUS
 10
12.124440599
 20
11.8862520827
 40
0.0262467192
100
AcDbArc
 50
59.0186049163
 51
90.0
  0
ARC
  5
387
100
AcDbEntity
  8
0
100
AcDbCircle
 62
7
  6
CONTINUOUS
 10
14.9664975034
 20
11.8882199144
 40
0.0131233596
100
AcDbArc
 50
43.1479528646
 51
88.9999999993
  0
ARC
  5
388
100
AcDbEntity
  8
0
100
AcDbCircle
 62
7
  6
CONTINUOUS
 10
11.9901610982
 20
11.8993754423
 40
0.0131233596
100
AcDbArc
 50
90.0
 51
169.0
  0
ARC
  5
389
100
AcDbEntity
  8
0
100
AcDbCircle
 62
7
  6
CONTINUOUS
 10
12.1664268759
 20
11.8851920741
 40
0.0131233596
100
AcDbArc
 50
105.9922777476
 51
176.0
  0
ARC
  5
38A
100
AcDbEntity
  8
0
100
AcDbCircle
 62
7
  6
CONTINUOUS
 10
12.0380942923
 20
11.8993754423
 40
0.0131233596
100
AcDbArc
 50
3.9999999993
 51
61.3333333354
  0
ARC
  5
38B
100
AcDbEntity
  8
0
100
AcDbCircle
 62
7
  6
CONTINUOUS
 10
12.3082735535
 20
11.9467603428
 40
0.000984252
100
AcDbArc
 50
3.0000000001
 51
89.0
  0
ARC
  5
38C
100
AcDbEntity
  8
0
100
AcDbCircle
 62
7
  6
CONTINUOUS
 10
12.370334376
 20
11.9456770671
 40
0.000984252
100
AcDbArc
 50
89.0
 51
176.9999999999
  0
ARC
  5
38D
100
AcDbEntity
  8
0
100
AcDbCircle
 62
7
  6
CONTINUOUS
 10
12.3103842639
 20
11.9440984285
 40
0.000984252
100
AcDbArc
 50
183.0000000001
 51
268.9999999999
  0
ARC
  5
38E
100
AcDbEntity
  8
0
100
AcDbCircle
 62
7
  6
CONTINUOUS
 10
12.3682275237
 20
11.9430887706
 40
0.000984252
100
AcDbArc
 50
268.9999999999
 51
356.9999999999
  0
ARC
  5
38F
100
AcDbEntity
  8
0
100
AcDbCircle
 62
7
  6
CONTINUOUS
 10
16.1850371725
 20
10.491758241
 40
0.1312335958
100
AcDbArc
 50
91.2999999999
 51
98.9999999997
  0
ARC
  5
390
100
AcDbEntity
  8
0
100
AcDbCircle
 62
7
  6
CONTINUOUS
 10
15.2960345665
 20
10.7319542917
 40
0.1181096705
100
AcDbArc
 50
187.0001878878
 51
261.0002642222
  0
ARC
  5
391
100
AcDbEntity
  8
DEFAULT_3
100
AcDbCircle
 62
7
  6
PHANTOM
 10
15.2861428633
 20
10.7590012315
 40
0.0656561502
100
AcDbArc
 50
187.0417001396
 51
269.5448425893
  0
ARC
  5
392
100
AcDbEntity
  8
0
100
AcDbCircle
 62
7
  6
CONTINUOUS
 10
15.2884877163
 20
10.7395811758
 40
0.0656167982
100
AcDbArc
 50
186.999999756
 51
268.7010379
  0
ARC
  5
393
100
AcDbEntity
  8
0
100
AcDbCircle
 62
7
  6
CONTINUOUS
 10
18.0102320497
 20
10.7825856909
 40
0.0656167978
100
AcDbArc
 50
271.3000182716
 51
352.9999997953
  0
ARC
  5
394
100
AcDbEntity
  8
0
100
AcDbCircle
 62
7
  6
CONTINUOUS
 10
15.4254173949
 20
10.5453728205
 40
0.0459317585
100
AcDbArc
 50
53.6310787579
 51
81.0000000003
  0
ARC
  5
395
100
AcDbEntity
  8
0
100
AcDbCircle
 62
7
  6
CONTINUOUS
 10
15.4798908256
 20
10.6193427543
 40
0.0459317585
100
AcDbArc
 50
233.6310787579
 51
270.0
  0
ARC
  5
396
100
AcDbEntity
  8
0
100
AcDbCircle
 62
7
  6
CONTINUOUS
 10
15.9237848699
 20
10.6193427543
 40
0.0459317585
100
AcDbArc
 50
270.0
 51
306.3689212421
  0
ARC
  5
397
100
AcDbEntity
  8
0
100
AcDbCircle
 62
7
  6
CONTINUOUS
 10
15.9782583007
 20
10.5453728205
 40
0.0459317585
100
AcDbArc
 50
98.9999999997
 51
126.3689212421
  0
ARC
  5
398
100
AcDbEntity
  8
0
100
AcDbCircle
 62
7
  6
CONTINUOUS
 10
15.8928253246
 20
10.658712833
 40
0.032808399
100
AcDbArc
 50
270.0
 51
278.9999999997
  0
ARC
  5
399
100
AcDbEntity
  8
0
100
AcDbCircle
 62
7
  6
CONTINUOUS
 10
15.510850371
 20
10.658712833
 40
0.032808399
100
AcDbArc
 50
261.0000000003
 51
270.0
  0
ARC
  5
39A
100
AcDbEntity
  8
0
100
AcDbCircle
 62
7
  6
CONTINUOUS
 10
18.3540556102
 20
11.8796904029
 40
0.032808399
100
AcDbArc
 50
17.4576031246
 51
73.5038967826
  0
ARC
  5
39B
100
AcDbEntity
  8
0
100
AcDbCircle
 62
7
  6
CONTINUOUS
 10
18.3405187522
 20
11.8796904029
 40
0.0131233596
100
AcDbArc
 50
270.0000000079
 51
355.9999999992
  0
ARC
  5
39C
100
AcDbEntity
  8
0
100
AcDbCircle
 62
7
  6
CONTINUOUS
 10
18.2673250584
 20
11.8534436837
 40
0.0131233596
100
AcDbArc
 50
90.0
 51
145.3849623304
  0
ARC
  5
39D
100
AcDbEntity
  8
0
100
AcDbCircle
 62
7
  6
CONTINUOUS
 10
15.3088893417
 20
10.6636394456
 40
0.0098425197
100
AcDbArc
 50
45.0
 51
88.7000000001
  0
ARC
  5
39E
100
AcDbEntity
  8
0
100
AcDbCircle
 62
7
  6
CONTINUOUS
 10
16.0947863538
 20
10.6636394456
 40
0.0098425197
100
AcDbArc
 50
91.2999999999
 51
135.0
  0
ARC
  5
39F
100
AcDbEntity
  8
0
100
AcDbCircle
 62
7
  6
CONTINUOUS
 10
15.4510764909
 20
10.6332811356
 40
0.0098425197
100
AcDbArc
 50
45.0
 51
81.0000000003
  0
ARC
  5
3A0
100
AcDbEntity
  8
0
100
AcDbCircle
 62
7
  6
CONTINUOUS
 10
15.9525992047
 20
10.6332811356
 40
0.0098425197
100
AcDbArc
 50
98.9999999997
 51
135.0
  0
ARC
  5
3A1
100
AcDbEntity
  8
0
100
AcDbCircle
 62
7
  6
CONTINUOUS
 10
16.0792087341
 20
10.666621059
 40
0.0032808399
100
AcDbArc
 50
278.9999999997
 51
315.0
  0
ARC
  5
3A2
100
AcDbEntity
  8
0
100
AcDbCircle
 62
7
  6
CONTINUOUS
 10
15.3244669615
 20
10.666621059
 40
0.0032808399
100
AcDbArc
 50
225.0
 51
261.0000000003
  0
ARC
  5
3A3
100
AcDbEntity
  8
0
100
AcDbCircle
 62
7
  6
CONTINUOUS
 10
15.9364921986
 20
10.6357333627
 40
0.0032808399
100
AcDbArc
 50
278.9999999997
 51
315.0
  0
ARC
  5
3A4
100
AcDbEntity
  8
0
100
AcDbCircle
 62
7
  6
CONTINUOUS
 10
15.4671834969
 20
10.6357333627
 40
0.0032808399
100
AcDbArc
 50
225.0
 51
261.0000000003
  0
ARC
  5
3A5
100
AcDbEntity
  8
0
100
AcDbCircle
 62
7
  6
CONTINUOUS
 10
18.420529158
 20
11.938745521
 40
0.0262467192
100
AcDbArc
 50
5.0
 51
90.0
  0
ARC
  5
3A6
100
AcDbEntity
  8
0
100
AcDbCircle
 62
7
  6
CONTINUOUS
 10
18.2447440227
 20
11.938745521
 40
0.0262467192
100
AcDbArc
 50
90.0
 51
173.0
  0
ARC
  5
3A7
100
AcDbEntity
  8
0
100
AcDbCircle
 62
7
  6
CONTINUOUS
 10
18.2845753369
 20
11.8862520827
 40
0.0262467192
100
AcDbArc
 50
90.0
 51
173.0
  0
ARC
  5
3A8
100
AcDbEntity
  8
0
100
AcDbCircle
 62
7
  6
CONTINUOUS
 10
18.4161392693
 20
11.8993754423
 40
0.0131233596
100
AcDbArc
 50
11.0
 51
90.0
  0
ARC
  5
3A9
100
AcDbEntity
  8
0
100
AcDbCircle
 62
7
  6
CONTINUOUS
 10
18.3682060752
 20
11.8993754423
 40
0.0131233596
100
AcDbArc
 50
89.9999999966
 51
175.9999999998
  0
SPLINE
  5
3AA
100
AcDbEntity
  8
0
100
AcDbSpline
 62
7
  6
CONTINUOUS
 70
0
 71
3
 72
9
 73
5
 74
0
 42
0.0000001
 43
0.0000001
 44
0.0000000001
 40
0.0
 40
0.0
 40
0.0
 40
0.0
 40
0.5000327925
 40
1.0
 40
1.0
 40
1.0
 40
1.0
 10
18.0062822478
 20
10.664355676
 30
0.0
 10
18.0329898503
 20
10.6649617563
 30
0.0
 10
18.0877003447
 20
10.685590077
 30
0.0
 10
18.1157405867
 20
10.7368514513
 30
0.0
 10
18.1201317862
 20
10.763199004
 30
0.0
  0
SPLINE
  5
3AB
100
AcDbEntity
  8
DEFAULT_3
100
AcDbSpline
 62
7
  6
PHANTOM
 70
0
 71
3
 72
9
 73
5
 74
0
 42
0.0000001
 43
0.0000001
 44
0.0000000001
 40
0.0
 40
0.0
 40
0.0
 40
0.0
 40
0.2994199775
 40
1.0
 40
1.0
 40
1.0
 40
1.0
 10
15.0581425019
 20
11.8917788674
 30
0.0
 10
15.0569043648
 20
11.8918004791
 30
0.0
 10
15.0572712015
 20
11.8982100034
 30
0.0
 10
15.0566171829
 20
11.9011102664
 30
0.0
 10
15.056641003
 20
11.9040075912
 30
0.0
  0
SPLINE
  5
3AC
100
AcDbEntity
  8
DEFAULT_3
100
AcDbSpline
 62
7
  6
PHANTOM
 70
0
 71
3
 72
9
 73
5
 74
0
 42
0.0000001
 43
0.0000001
 44
0.0000000001
 40
0.0
 40
0.0
 40
0.0
 40
0.0
 40
0.9230500572
 40
1.0
 40
1.0
 40
1.0
 40
1.0
 10
18.2703229466
 20
11.8787749636
 30
0.0
 10
18.2694067738
 20
11.8750172652
 30
0.0
 10
18.2696317045
 20
11.8746043837
 30
0.0
 10
18.267199093
 20
11.8662702303
 30
0.0
 10
18.2673250583
 20
11.8665670433
 30
0.0
  0
SPLINE
  5
3AD
100
AcDbEntity
  8
DEFAULT_3
100
AcDbSpline
 62
7
  6
PHANTOM
 70
0
 71
3
 72
8
 73
4
 74
0
 42
0.0000001
 43
0.0000001
 44
0.0000000001
 40
0.0
 40
0.0
 40
0.0
 40
0.0
 40
1.0
 40
1.0
 40
1.0
 40
1.0
 10
15.0837355135
 20
11.8687348161
 30
0.0
 10
15.082677415
 20
11.8773523366
 30
0.0
 10
15.0796022952
 20
11.8861223519
 30
0.0
 10
15.0743395248
 20
11.8930277469
 30
0.0
  0
SPLINE
  5
3AE
100
AcDbEntity
  8
DEFAULT_3
100
AcDbSpline
 62
7
  6
PHANTOM
 70
0
 71
3
 72
8
 73
4
 74
0
 42
0.0000001
 43
0.0000001
 44
0.0000000001
 40
0.0
 40
0.0
 40
0.0
 40
0.0
 40
1.0
 40
1.0
 40
1.0
 40
1.0
 10
15.0743395248
 20
11.8930277469
 30
0.0
 10
15.0716776767
 20
11.8965204155
 30
0.0
 10
15.0683107629
 20
11.8996645048
 30
0.0
 10
15.0644155326
 20
11.9016921513
 30
0.0
  0
SPLINE
  5
3AF
100
AcDbEntity
  8
DEFAULT_3
100
AcDbSpline
 62
7
  6
PHANTOM
 70
0
 71
3
 72
8
 73
4
 74
0
 42
0.0000001
 43
0.0000001
 44
0.0000000001
 40
0.0
 40
0.0
 40
0.0
 40
0.0
 40
1.0
 40
1.0
 40
1.0
 40
1.0
 10
15.0631245849
 20
11.9023140446
 30
0.0
 10
15.0610826592
 20
11.9032193279
 30
0.0
 10
15.0588669729
 20
11.903822841
 30
0.0
 10
15.056640887
 20
11.904005981
 30
0.0
  0
SPLINE
  5
3B0
100
AcDbEntity
  8
DEFAULT_3
100
AcDbSpline
 62
7
  6
PHANTOM
 70
0
 71
3
 72
8
 73
4
 74
0
 42
0.0000001
 43
0.0000001
 44
0.0000000001
 40
0.0
 40
0.0
 40
0.0
 40
0.0
 40
1.0
 40
1.0
 40
1.0
 40
1.0
 10
14.9858877196
 20
11.9054609413
 30
0.0
 10
14.983715455
 20
11.9039287763
 30
0.0
 10
14.9817754239
 20
11.9020677626
 30
0.0
 10
14.979961722
 20
11.9001243768
 30
0.0
  0
SPLINE
  5
3B1
100
AcDbEntity
  8
DEFAULT_3
100
AcDbSpline
 62
7
  6
PHANTOM
 70
0
 71
3
 72
10
 73
6
 74
0
 42
0.0000001
 43
0.0000001
 44
0.0000000001
 40
0.0
 40
0.0
 40
0.0
 40
0.0
 40
0.6989834444
 40
0.8339526487
 40
1.0
 40
1.0
 40
1.0
 40
1.0
 10
14.9799615649
 20
11.9001245986
 30
0.0
 10
14.9790496496
 20
11.8993901412
 30
0.0
 10
14.9784453708
 20
11.8988490767
 30
0.0
 10
14.9763150421
 20
11.8972681952
 30
0.0
 10
14.9770346437
 20
11.8979589745
 30
0.0
 10
14.9772380958
 20
11.8981486514
 30
0.0
  0
SPLINE
  5
3B2
100
AcDbEntity
  8
DEFAULT_3
100
AcDbSpline
 62
7
  6
PHANTOM
 70
0
 71
3
 72
8
 73
4
 74
0
 42
0.0000001
 43
0.0000001
 44
0.0000000001
 40
0.0
 40
0.0
 40
0.0
 40
0.0
 40
1.0
 40
1.0
 40
1.0
 40
1.0
 10
14.9890671892
 20
11.8929845814
 30
0.0
 10
14.9852107161
 20
11.8930518964
 30
0.0
 10
14.9813976852
 20
11.8965448676
 30
0.0
 10
14.9799615649
 20
11.9001245986
 30
0.0
  0
SPLINE
  5
3B3
100
AcDbEntity
  8
DEFAULT_3
100
AcDbSpline
 62
7
  6
PHANTOM
 70
0
 71
3
 72
9
 73
5
 74
0
 42
0.0000001
 43
0.0000001
 44
0.0000000001
 40
0.0
 40
0.0
 40
0.0
 40
0.0
 40
0.0631508833
 40
1.0
 40
1.0
 40
1.0
 40
1.0
 10
14.966736725
 20
11.9013410974
 30
0.0
 10
14.9668707834
 20
11.9013387574
 30
0.0
 10
14.9688812904
 20
11.9022691506
 30
0.0
 10
14.9698987765
 20
11.9043227831
 30
0.0
 10
14.9710948439
 20
11.9059120687
 30
0.0
  0
SPLINE
  5
3B4
100
AcDbEntity
  8
DEFAULT_3
100
AcDbSpline
 62
7
  6
PHANTOM
 70
0
 71
3
 72
11
 73
7
 74
0
 42
0.0000001
 43
0.0000001
 44
0.0000000001
 40
0.0
 40
0.0
 40
0.0
 40
0.0
 40
0.3834739186
 40
0.7086946076
 40
0.9244095096
 40
1.0
 40
1.0
 40
1.0
 40
1.0
 10
15.1274781694
 20
11.9419441397
 30
0.0
 10
15.120729967
 20
11.9423756324
 30
0.0
 10
15.108673623
 20
11.9428307569
 30
0.0
 10
15.0908777343
 20
11.9438645822
 30
0.0
 10
15.0829442235
 20
11.9425067994
 30
0.0
 10
15.0745840961
 20
11.9432671288
 30
0.0
 10
15.0747465388
 20
11.9419441401
 30
0.0
  0
SPLINE
  5
3B5
100
AcDbEntity
  8
DEFAULT_3
100
AcDbSpline
 62
7
  6
PHANTOM
 70
0
 71
3
 72
8
 73
4
 74
0
 42
0.0000001
 43
0.0000001
 44
0.0000000001
 40
0.0
 40
0.0
 40
0.0
 40
0.0
 40
1.0
 40
1.0
 40
1.0
 40
1.0
 10
18.284575332
 20
11.9002908816
 30
0.0
 10
18.2787781328
 20
11.9002908807
 30
0.0
 10
18.2722562984
 20
11.8945208462
 30
0.0
 10
18.2715497971
 20
11.8887668585
 30
0.0
  0
SPLINE
  5
3B6
100
AcDbEntity
  8
DEFAULT_3
100
AcDbSpline
 62
7
  6
PHANTOM
 70
0
 71
3
 72
9
 73
5
 74
0
 42
0.0000001
 43
0.0000001
 44
0.0000000001
 40
0.0
 40
0.0
 40
0.0
 40
0.0
 40
0.7048158802
 40
1.0
 40
1.0
 40
1.0
 40
1.0
 10
18.2703229466
 20
11.8787749636
 30
0.0
 10
18.2672751679
 20
11.8791473628
 30
0.0
 10
18.2642830782
 20
11.8784121521
 30
0.0
 10
18.2574541225
 20
11.8807352085
 30
0.0
 10
18.2572974066
 20
11.8794588595
 30
0.0
  0
SPLINE
  5
3B7
100
AcDbEntity
  8
DEFAULT_3
100
AcDbSpline
 62
7
  6
PHANTOM
 70
0
 71
3
 72
11
 73
7
 74
0
 42
0.0000001
 43
0.0000001
 44
0.0000000001
 40
0.0
 40
0.0
 40
0.0
 40
0.0
 40
0.376080638
 40
0.6942764851
 40
0.9104471675
 40
1.0
 40
1.0
 40
1.0
 40
1.0
 10
15.2860181671
 20
10.7509481323
 30
0.0
 10
15.2778486067
 20
10.7497886917
 30
0.0
 10
15.2629534299
 20
10.7483115922
 30
0.0
 10
15.2420265012
 20
10.7471377256
 30
0.0
 10
15.2303004659
 20
10.7477684227
 30
0.0
 10
15.221265659
 20
10.7490037242
 30
0.0
 10
15.2209805485
 20
10.7509477692
 30
0.0
  0
LINE
  5
3B8
100
AcDbEntity
  8
DEFAULT_3
100
AcDbLine
 62
7
  6
PHANTOM
 10
12.3127300621
 20
11.9467341425
 11
12.3092564531
 21
11.9468119148
  0
LINE
  5
3B9
100
AcDbEntity
  8
DEFAULT_3
100
AcDbLine
 62
7
  6
PHANTOM
 10
12.3094013587
 20
11.9440469728
 11
12.3127301922
 21
11.9440060095
  0
LINE
  5
3BA
100
AcDbEntity
  8
DEFAULT_3
100
AcDbLine
 62
7
  6
PHANTOM
 10
12.369351475
 20
11.9457286202
 11
12.3658796679
 21
11.9458063926
  0
SPLINE
  5
3BB
100
AcDbEntity
  8
DEFAULT_3
100
AcDbSpline
 62
7
  6
PHANTOM
 70
0
 71
3
 72
11
 73
7
 74
0
 42
0.0000001
 43
0.0000001
 44
0.0000000001
 40
0.0
 40
0.0
 40
0.0
 40
0.0
 40
0.0803125886
 40
0.2939779166
 40
0.6138733756
 40
1.0
 40
1.0
 40
1.0
 40
1.0
 10
15.2856202132
 20
10.6933455178
 30
0.0
 10
15.284800816
 20
10.6946519203
 30
0.0
 10
15.2867306924
 20
10.7008314698
 30
0.0
 10
15.2851362247
 20
10.7121513334
 30
0.0
 10
15.2861320286
 20
10.7300459652
 30
0.0
 10
15.2859113974
 20
10.7435347555
 30
0.0
 10
15.2860181671
 20
10.7509481323
 30
0.0
  0
LINE
  5
3BC
100
AcDbEntity
  8
DEFAULT_3
100
AcDbLine
 62
7
  6
PHANTOM
 10
12.3658797981
 20
11.9430782505
 11
12.3692104282
 21
11.9430372868
  0
SPLINE
  5
3BD
100
AcDbEntity
  8
DEFAULT_3
100
AcDbSpline
 62
7
  6
PHANTOM
 70
0
 71
3
 72
9
 73
5
 74
0
 42
0.0000001
 43
0.0000001
 44
0.0000000001
 40
0.0
 40
0.0
 40
0.0
 40
0.0
 40
0.2054267962
 40
1.0
 40
1.0
 40
1.0
 40
1.0
 10
15.2860207855
 20
10.7509511201
 30
0.0
 10
15.4649176979
 20
10.7496149866
 30
0.0
 10
16.3358149369
 20
10.7472149037
 30
0.0
 10
17.2066065861
 20
10.765209338
 30
0.0
 10
17.8984462273
 20
10.7790058477
 30
0.0
  0
SPLINE
  5
3BE
100
AcDbEntity
  8
DEFAULT_3
100
AcDbSpline
 62
7
  6
PHANTOM
 70
0
 71
3
 72
11
 73
7
 74
0
 42
0.0000001
 43
0.0000001
 44
0.0000000001
 40
0.0
 40
0.0
 40
0.0
 40
0.0
 40
0.0755957374
 40
0.2913126044
 40
0.6165347035
 40
1.0
 40
1.0
 40
1.0
 40
1.0
 10
18.2186929361
 20
11.9419441386
 30
0.0
 10
18.21885541
 20
11.943267381
 30
0.0
 10
18.2104951366
 20
11.9425110514
 30
0.0
 10
18.2025595291
 20
11.943866381
 30
0.0
 10
18.184762094
 20
11.9428330229
 30
0.0
 10
18.1727042759
 20
11.9423766632
 30
0.0
 10
18.1659554636
 20
11.941944139
 30
0.0
  0
SPLINE
  5
3BF
100
AcDbEntity
  8
DEFAULT_3
100
AcDbSpline
 62
7
  6
PHANTOM
 70
0
 71
3
 72
11
 73
7
 74
0
 42
0.0000001
 43
0.0000001
 44
0.0000000001
 40
0.0
 40
0.0
 40
0.0
 40
0.0
 40
0.0895950471
 40
0.3057732724
 40
0.6239471234
 40
1.0
 40
1.0
 40
1.0
 40
1.0
 10
18.0761821023
 20
10.7812627434
 30
0.0
 10
18.0758932
 20
10.7793185875
 30
0.0
 10
18.0668708184
 20
10.7780722538
 30
0.0
 10
18.0551352054
 20
10.7774474937
 30
0.0
 10
18.0342174876
 20
10.778621077
 30
0.0
 10
18.0193236047
 20
10.7800976509
 30
0.0
 10
18.0111563312
 20
10.7812610188
 30
0.0
  0
SPLINE
  5
3C0
100
AcDbEntity
  8
DEFAULT_3
100
AcDbSpline
 62
7
  6
PHANTOM
 70
0
 71
3
 72
9
 73
5
 74
0
 42
0.0000001
 43
0.0000001
 44
0.0000000001
 40
0.0
 40
0.0
 40
0.0
 40
0.0
 40
0.5000674639
 40
1.0
 40
1.0
 40
1.0
 40
1.0
 10
18.012373664
 20
10.7236592416
 30
0.0
 10
18.0276627694
 20
10.7240267351
 30
0.0
 10
18.0590914546
 20
10.7360626293
 30
0.0
 10
18.0742458183
 20
10.7660964518
 30
0.0
 10
18.0761821023
 20
10.7812627434
 30
0.0
  0
SPLINE
  5
3C1
100
AcDbEntity
  8
DEFAULT_3
100
AcDbSpline
 62
7
  6
PHANTOM
 70
0
 71
3
 72
9
 73
5
 74
0
 42
0.0000001
 43
0.0000001
 44
0.0000000001
 40
0.0
 40
0.0
 40
0.0
 40
0.0
 40
0.6873521575
 40
1.0
 40
1.0
 40
1.0
 40
1.0
 10
14.9708147289
 20
11.9052668974
 30
0.0
 10
14.9723816021
 20
11.9071308001
 30
0.0
 10
14.9748655333
 20
11.909818249
 30
0.0
 10
14.9781576975
 20
11.9112382415
 30
0.0
 10
14.9792071887
 20
11.9115922213
 30
0.0
  0
LINE
  5
3C2
100
AcDbEntity
  8
DEFAULT_3
100
AcDbLine
 62
7
  6
PHANTOM
 10
18.0124750182
 20
10.7236627887
 11
17.8997526597
 21
10.7214025459
  0
LINE
  5
3C3
100
AcDbEntity
  8
DEFAULT_3
100
AcDbLine
 62
7
  6
PHANTOM
 10
18.0123725463
 20
10.7236607083
 11
18.0117207334
 21
10.7169857825
  0
SPLINE
  5
3C4
100
AcDbEntity
  8
DEFAULT_3
100
AcDbSpline
 62
7
  6
PHANTOM
 70
0
 71
3
 72
10
 73
6
 74
0
 42
0.0000001
 43
0.0000001
 44
0.0000000001
 40
0.0
 40
0.0
 40
0.0
 40
0.0
 40
0.0770288127
 40
0.2898507619
 40
1.0
 40
1.0
 40
1.0
 40
1.0
 10
18.0124750182
 20
10.7236627887
 30
0.0
 10
18.012106021
 20
10.7250954172
 30
0.0
 10
18.0126502509
 20
10.7307648519
 30
0.0
 10
18.0112675496
 20
10.7498249303
 30
0.0
 10
18.0114332658
 20
10.7676282274
 30
0.0
 10
18.0111541552
 20
10.781264228
 30
0.0
  0
SPLINE
  5
3C5
100
AcDbEntity
  8
DEFAULT_3
100
AcDbSpline
 62
7
  6
PHANTOM
 70
0
 71
3
 72
9
 73
5
 74
0
 42
0.0000001
 43
0.0000001
 44
0.0000000001
 40
0.0
 40
0.0
 40
0.0
 40
0.0
 40
0.7100413313
 40
1.0
 40
1.0
 40
1.0
 40
1.0
 10
17.8984462287
 20
10.7790057788
 30
0.0
 10
17.89872222
 20
10.7653714718
 30
0.0
 10
17.9005277678
 20
10.7463636441
 30
0.0
 10
17.89842184
 20
10.7268101603
 30
0.0
 10
17.8997526597
 20
10.7214025461
 30
0.0
  0
SPLINE
  5
3C6
100
AcDbEntity
  8
DEFAULT_3
100
AcDbSpline
 62
7
  6
PHANTOM
 70
0
 71
3
 72
9
 73
5
 74
0
 42
0.0000001
 43
0.0000001
 44
0.0000000001
 40
0.0
 40
0.0
 40
0.0
 40
0.0
 40
0.7100521719
 40
1.0
 40
1.0
 40
1.0
 40
1.0
 10
12.1388457151
 20
11.8943045304
 30
0.0
 10
12.1401077506
 20
11.8969302579
 30
0.0
 10
12.1423982993
 20
11.8987808718
 30
0.0
 10
12.1434350901
 20
11.9057412473
 30
0.0
 10
12.1445082777
 20
11.9052279405
 30
0.0
  0
SPLINE
  5
3C7
100
AcDbEntity
  8
DEFAULT_3
100
AcDbSpline
 62
7
  6
PHANTOM
 70
0
 71
3
 72
8
 73
4
 74
0
 42
0.0000001
 43
0.0000001
 44
0.0000000001
 40
0.0
 40
0.0
 40
0.0
 40
0.0
 40
1.0
 40
1.0
 40
1.0
 40
1.0
 10
12.1311959744
 20
11.8984186315
 30
0.0
 10
12.1291926625
 20
11.8996214576
 30
0.0
 10
12.1267772719
 20
11.9002908816
 30
0.0
 10
12.1244405971
 20
11.9002908816
 30
0.0
  0
SPLINE
  5
3C8
100
AcDbEntity
  8
DEFAULT_3
100
AcDbSpline
 62
7
  6
PHANTOM
 70
0
 71
3
 72
8
 73
4
 74
0
 42
0.0000001
 43
0.0000001
 44
0.0000000001
 40
0.0
 40
0.0
 40
0.0
 40
0.0
 40
1.0
 40
1.0
 40
1.0
 40
1.0
 10
14.9708146897
 20
11.9052668564
 30
0.0
 10
14.9742616527
 20
11.9046729743
 30
0.0
 10
14.9776603587
 20
11.9027587331
 30
0.0
 10
14.9799615689
 20
11.9001245954
 30
0.0
  0
SPLINE
  5
3C9
100
AcDbEntity
  8
DEFAULT_3
100
AcDbSpline
 62
7
  6
PHANTOM
 70
0
 71
3
 72
9
 73
5
 74
0
 42
0.0000001
 43
0.0000001
 44
0.0000000001
 40
0.0
 40
0.0
 40
0.0
 40
0.0
 40
0.7098258436
 40
1.0
 40
1.0
 40
1.0
 40
1.0
 10
12.1311959764
 20
11.8984186305
 30
0.0
 10
12.1327060985
 20
11.9009215064
 30
0.0
 10
12.1351415428
 20
11.9025769674
 30
0.0
 10
12.1369268699
 20
11.9093694423
 30
0.0
 10
12.1379513541
 20
11.9087542995
 30
0.0
  0
SPLINE
  5
3CA
100
AcDbEntity
  8
DEFAULT_3
100
AcDbSpline
 62
7
  6
PHANTOM
 70
0
 71
3
 72
9
 73
5
 74
0
 42
0.0000001
 43
0.0000001
 44
0.0000000001
 40
0.0
 40
0.0
 40
0.0
 40
0.0
 40
0.0667042817
 40
1.0
 40
1.0
 40
1.0
 40
1.0
 10
12.1533354728
 20
11.8861073509
 30
0.0
 10
12.1529758055
 20
11.8861979691
 30
0.0
 10
12.147613196
 20
11.8876747849
 30
0.0
 10
12.1427151005
 20
11.8908452416
 30
0.0
 10
12.1388456291
 20
11.8943044765
 30
0.0
  0
SPLINE
  5
3CB
100
AcDbEntity
  8
DEFAULT_3
100
AcDbSpline
 62
7
  6
PHANTOM
 70
0
 71
3
 72
8
 73
4
 74
0
 42
0.0000001
 43
0.0000001
 44
0.0000000001
 40
0.0
 40
0.0
 40
0.0
 40
0.0
 40
1.0
 40
1.0
 40
1.0
 40
1.0
 10
15.2870001951
 20
10.6739812407
 30
0.0
 10
15.2872300914
 20
10.680448771
 30
0.0
 10
15.2863014716
 20
10.6869112431
 30
0.0
 10
15.2856225137
 20
10.6933471437
 30
0.0
  0
SPLINE
  5
3CC
100
AcDbEntity
  8
DEFAULT_3
100
AcDbSpline
 62
7
  6
PHANTOM
 70
0
 71
3
 72
9
 73
5
 74
0
 42
0.0000001
 43
0.0000001
 44
0.0000000001
 40
0.0
 40
0.0
 40
0.0
 40
0.0
 40
0.3081420884
 40
1.0
 40
1.0
 40
1.0
 40
1.0
 10
17.8997526597
 20
10.7214025462
 30
0.0
 10
17.6312787182
 20
10.7160494282
 30
0.0
 10
16.7600206934
 20
10.6991732709
 30
0.0
 10
15.8885171186
 20
10.6888498545
 30
0.0
 10
15.2856213175
 20
10.6933471538
 30
0.0
  0
SPLINE
  5
3CD
100
AcDbEntity
  8
DEFAULT_3
100
AcDbSpline
 62
7
  6
PHANTOM
 70
0
 71
3
 72
9
 73
5
 74
0
 42
0.0000001
 43
0.0000001
 44
0.0000000001
 40
0.0
 40
0.0
 40
0.0
 40
0.0
 40
0.295184116
 40
1.0
 40
1.0
 40
1.0
 40
1.0
 10
18.2585242565
 20
11.8894507538
 30
0.0
 10
18.2586809724
 20
11.8907271028
 30
0.0
 10
18.2655099285
 20
11.8884040455
 30
0.0
 10
18.268502018
 20
11.8891392559
 30
0.0
 10
18.2715497968
 20
11.8887668563
 30
0.0
  0
SPLINE
  5
3CE
100
AcDbEntity
  8
DEFAULT_3
100
AcDbSpline
 62
7
  6
PHANTOM
 70
0
 71
3
 72
8
 73
4
 74
0
 42
0.0000001
 43
0.0000001
 44
0.0000000001
 40
0.0
 40
0.0
 40
0.0
 40
0.0
 40
1.0
 40
1.0
 40
1.0
 40
1.0
 10
14.9790834026
 20
11.912375865
 30
0.0
 10
14.9817185116
 20
11.9105015874
 30
0.0
 10
14.9840439689
 20
11.9081177925
 30
0.0
 10
14.9858876205
 20
11.905461166
 30
0.0
  0
SPLINE
  5
3CF
100
AcDbEntity
  8
DEFAULT_3
100
AcDbSpline
 62
7
  6
PHANTOM
 70
0
 71
3
 72
11
 73
7
 74
0
 42
0.0000001
 43
0.0000001
 44
0.0000000001
 40
0.0
 40
0.0
 40
0.0
 40
0.0
 40
0.3818843522
 40
0.7053094056
 40
0.9217266715
 40
1.0
 40
1.0
 40
1.0
 40
1.0
 10
15.0486954524
 20
11.9401191681
 30
0.0
 10
15.0520019719
 20
11.9405240457
 30
0.0
 10
15.0579445619
 20
11.9410921407
 30
0.0
 10
15.0665570547
 20
11.9422460256
 30
0.0
 10
15.0707432187
 20
11.9417069732
 30
0.0
 10
15.0746633218
 20
11.9426218882
 30
0.0
 10
15.0747465325
 20
11.9419441914
 30
0.0
  0
LINE
  5
3D0
100
AcDbEntity
  8
DEFAULT_3
100
AcDbLine
 62
7
  6
PHANTOM
 10
12.7451425061
 20
11.9525549071
 11
14.1703496475
 21
11.9401142569
  0
SPLINE
  5
3D1
100
AcDbEntity
  8
DEFAULT_3
100
AcDbSpline
 62
7
  6
PHANTOM
 70
0
 71
3
 72
9
 73
5
 74
0
 42
0.0000001
 43
0.0000001
 44
0.0000000001
 40
0.0
 40
0.0
 40
0.0
 40
0.0
 40
0.7336422126
 40
1.0
 40
1.0
 40
1.0
 40
1.0
 10
12.745142471
 20
11.9525549074
 30
0.0
 10
12.7450690634
 20
11.9495142869
 30
0.0
 10
12.7436096344
 20
11.9470969725
 30
0.0
 10
12.7457775462
 20
11.9399730615
 30
0.0
 10
12.7446840997
 20
11.940127193
 30
0.0
  0
SPLINE
  5
3D2
100
AcDbEntity
  8
DEFAULT_3
100
AcDbSpline
 62
7
  6
PHANTOM
 70
0
 71
3
 72
9
 73
5
 74
0
 42
0.0000001
 43
0.0000001
 44
0.0000000001
 40
0.0
 40
0.0
 40
0.0
 40
0.0
 40
0.7399072307
 40
1.0
 40
1.0
 40
1.0
 40
1.0
 10
12.2372365893
 20
11.9569892046
 30
0.0
 10
12.2371822863
 20
11.9550152155
 30
0.0
 10
12.2362391787
 20
11.9534198361
 30
0.0
 10
12.2375918466
 20
11.9489270798
 30
0.0
 10
12.2369005957
 20
11.948990572
 30
0.0
  0
SPLINE
  5
3D3
100
AcDbEntity
  8
DEFAULT_3
100
AcDbSpline
 62
7
  6
PHANTOM
 70
0
 71
3
 72
8
 73
4
 74
0
 42
0.0000001
 43
0.0000001
 44
0.0000000001
 40
0.0
 40
0.0
 40
0.0
 40
0.0
 40
1.0
 40
1.0
 40
1.0
 40
1.0
 10
18.3856275675
 20
11.9059032327
 30
0.0
 10
18.3832316529
 20
11.9070304957
 30
0.0
 10
18.3807540385
 20
11.9079941633
 30
0.0
 10
18.3782352734
 20
11.9088108337
 30
0.0
  0
SPLINE
  5
3D4
100
AcDbEntity
  8
DEFAULT_3
100
AcDbSpline
 62
7
  6
PHANTOM
 70
0
 71
3
 72
8
 73
4
 74
0
 42
0.0000001
 43
0.0000001
 44
0.0000000001
 40
0.0
 40
0.0
 40
0.0
 40
0.0
 40
1.0
 40
1.0
 40
1.0
 40
1.0
 10
18.3782352734
 20
11.9088108337
 30
0.0
 10
18.3739164162
 20
11.9102111558
 30
0.0
 10
18.3694444293
 20
11.911189168
 30
0.0
 10
18.3649437031
 20
11.9117865736
 30
0.0
  0
LINE
  5
3D5
100
AcDbEntity
  8
DEFAULT_3
100
AcDbLine
 62
7
  6
PHANTOM
 10
12.1795521343
 20
11.9573309724
 11
12.2033232932
 21
11.9571886471
  0
LINE
  5
3D6
100
AcDbEntity
  8
DEFAULT_3
100
AcDbLine
 62
7
  6
PHANTOM
 10
12.2033232932
 20
11.9571886471
 11
12.2372365684
 21
11.956988109
  0
SPLINE
  5
3D7
100
AcDbEntity
  8
DEFAULT_3
100
AcDbSpline
 62
7
  6
PHANTOM
 70
0
 71
3
 72
9
 73
5
 74
0
 42
0.0000001
 43
0.0000001
 44
0.0000000001
 40
0.0
 40
0.0
 40
0.0
 40
0.0
 40
0.2605120782
 40
1.0
 40
1.0
 40
1.0
 40
1.0
 10
12.2371143313
 20
11.96499224
 30
0.0
 10
12.2378092797
 20
11.9649797759
 30
0.0
 10
12.2362809689
 20
11.9606628386
 30
0.0
 10
12.2372242262
 20
11.9589623553
 30
0.0
 10
12.2372365875
 20
11.9569894008
 30
0.0
  0
SPLINE
  5
3D8
100
AcDbEntity
  8
DEFAULT_3
100
AcDbSpline
 62
7
  6
PHANTOM
 70
0
 71
3
 72
9
 73
5
 74
0
 42
0.0000001
 43
0.0000001
 44
0.0000000001
 40
0.0
 40
0.0
 40
0.0
 40
0.0
 40
0.6242239579
 40
1.0
 40
1.0
 40
1.0
 40
1.0
 10
14.973208971
 20
11.8932620989
 30
0.0
 10
14.9718786716
 20
11.8932895922
 30
0.0
 10
14.9695027642
 20
11.8945735262
 30
0.0
 10
14.969288855
 20
11.8968082088
 30
0.0
 10
14.9692239066
 20
11.8976065681
 30
0.0
  0
SPLINE
  5
3D9
100
AcDbEntity
  8
DEFAULT_3
100
AcDbSpline
 62
7
  6
PHANTOM
 70
0
 71
3
 72
9
 73
5
 74
0
 42
0.0000001
 43
0.0000001
 44
0.0000000001
 40
0.0
 40
0.0
 40
0.0
 40
0.0
 40
0.2602072056
 40
1.0
 40
1.0
 40
1.0
 40
1.0
 10
14.9601561963
 20
11.8935654788
 30
0.0
 10
14.9604965659
 20
11.893603888
 30
0.0
 10
14.9597509679
 20
11.8956552753
 30
0.0
 10
14.960245882
 20
11.8965393834
 30
0.0
 10
14.9602707859
 20
11.8975129086
 30
0.0
  0
SPLINE
  5
3DA
100
AcDbEntity
  8
DEFAULT_3
100
AcDbSpline
 62
7
  6
PHANTOM
 70
0
 71
3
 72
8
 73
4
 74
0
 42
0.0000001
 43
0.0000001
 44
0.0000000001
 40
0.0
 40
0.0
 40
0.0
 40
0.0
 40
1.0
 40
1.0
 40
1.0
 40
1.0
 10
13.5806046101
 20
11.9255307353
 30
0.0
 10
14.0165011131
 20
11.9175167534
 30
0.0
 10
14.4523512505
 20
11.9071217655
 30
0.0
 10
14.8882428896
 20
11.8988474526
 30
0.0
  0
LINE
  5
3DB
100
AcDbEntity
  8
DEFAULT_3
100
AcDbLine
 62
7
  6
PHANTOM
 10
14.8882428896
 20
11.8988474526
 11
14.9602709581
 21
11.8975131229
  0
SPLINE
  5
3DC
100
AcDbEntity
  8
DEFAULT_3
100
AcDbSpline
 62
7
  6
PHANTOM
 70
0
 71
3
 72
9
 73
5
 74
0
 42
0.0000001
 43
0.0000001
 44
0.0000000001
 40
0.0
 40
0.0
 40
0.0
 40
0.0
 40
0.1516835631
 40
1.0
 40
1.0
 40
1.0
 40
1.0
 10
14.9603149474
 20
11.9014531899
 30
0.0
 10
14.9605293833
 20
11.9014494039
 30
0.0
 10
14.9597333545
 20
11.899235674
 30
0.0
 10
14.9602823079
 20
11.8984111549
 30
0.0
 10
14.9602601168
 20
11.8972119038
 30
0.0
  0
SPLINE
  5
3DD
100
AcDbEntity
  8
DEFAULT_3
100
AcDbSpline
 62
7
  6
PHANTOM
 70
0
 71
3
 72
9
 73
5
 74
0
 42
0.0000001
 43
0.0000001
 44
0.0000000001
 40
0.0
 40
0.0
 40
0.0
 40
0.0
 40
0.6248129423
 40
1.0
 40
1.0
 40
1.0
 40
1.0
 10
14.96370422
 20
11.9013940517
 30
0.0
 10
14.9650542338
 20
11.9013704238
 30
0.0
 10
14.9674401153
 20
11.9000908129
 30
0.0
 10
14.9677585516
 20
11.8978531372
 30
0.0
 10
14.9678622069
 20
11.8970490114
 30
0.0
  0
ENDSEC
  0
SECTION
  2
OBJECTS
  0
DICTIONARY
  5
C
100
AcDbDictionary
280
0
281
1
  3
ACAD_GROUP
350
D
  3
ACAD_MLINESTYLE
350
17
  3
ACAD_LAYOUT
350
1A
  3
ACAD_PLOTSETTINGS
350
19
  3
ACAD_PLOTSTYLENAME
350
E
  0
DICTIONARY
  5
D
102
{ACAD_REACTORS
330
C
102
}
100
AcDbDictionary
280
0
281
1
  0
ACDBDICTIONARYWDFLT
  5
E
102
{ACAD_REACTORS
330
C
102
}
100
AcDbDictionary
281
1
  3
Normal
350
F
100
AcDbDictionaryWithDefault
340
F
  0
DICTIONARY
  5
17
102
{ACAD_REACTORS
330
C
102
}
100
AcDbDictionary
280
0
281
1
  3
Standard
350
18
  0
DICTIONARY
  5
19
102
{ACAD_REACTORS
330
C
102
}
100
AcDbDictionary
281
1
  0
DICTIONARY
  5
1A
102
{ACAD_REACTORS
330
C
102
}
100
AcDbDictionary
281
1
  3
Model
350
3DE
  3
Layout1
350
3DF
  0
ACDBPLACEHOLDER
  5
F
102
{ACAD_REACTORS
330
E
102
}
  0
MLINESTYLE
  5
18
102
{ACAD_REACTORS
330
17
102
}
100
AcDbMlineStyle
  2
STANDARD
 70
0
  3

 62
256
 51
90.0
 52
90.0
 71
2
 49
0.5
 62
256
  6
BYLAYER
 49
-0.5
 62
256
  6
BYLAYER
  0
LAYOUT
  5
3DE
102
{ACAD_REACTORS
330
1A
102
}
100
AcDbPlotSettings
  1

  2
none_device
  4
ANSI_E_(44.00_x_34.00_Inches)
  6

 40
0.0
 41
0.0
 42
0.0
 43
0.0
 44
1117.6
 45
863.6
 46
0.0
 47
0.0
 48
0.0
 49
0.0
140
0.0
141
0.0
142
1.0
143
1.0
 70
1024
 72
0
 73
0
 74
0
  7

 75
0
147
1.0
148
0.0
149
0.0
100
AcDbLayout
  1
Model
 70
0
 71
0
 10
0.0
 20
0.0
 11
44.0
 21
34.0
 12
0.0
 22
0.0
 32
0.0
 14
0.0
 24
0.0
 34
0.0
 15
0.0
 25
0.0
 35
0.0
146
0.0
 13
0.0
 23
0.0
 33
0.0
 16
1.0
 26
0.0
 36
0.0
 17
0.0
 27
1.0
 37
0.0
 76
0
330
21A
345
0
346
0
  0
LAYOUT
  5
3DF
102
{ACAD_REACTORS
330
1A
102
}
100
AcDbPlotSettings
  1

  2
none_device
  4
ANSI_E_(44.00_x_34.00_Inches)
  6

 40
0.0
 41
0.0
 42
0.0
 43
0.0
 44
1117.6
 45
863.6
 46
0.0
 47
0.0
 48
0.0
 49
0.0
140
0.0
141
0.0
142
1.0
143
1.0
 70
0
 72
0
 73
0
 74
0
  7

 75
0
147
1.0
148
0.0
149
0.0
100
AcDbLayout
  1
Layout1
 70
0
 71
1
 10
0.0
 20
0.0
 11
44.0
 21
34.0
 12
0.0
 22
0.0
 32
0.0
 14
0.0
 24
0.0
 34
0.0
 15
0.0
 25
0.0
 35
0.0
146
0.0
 13
0.0
 23
0.0
 33
0.0
 16
1.0
 26
0.0
 36
0.0
 17
0.0
 27
1.0
 37
0.0
 76
0
330
21B
345
0
346
0
  0
ENDSEC
  0
EOF
